Ссылка на приватное зеркало нашего сайта всего за 1$. Внимание количество ограничено!!!

2 сезон

iTunes

1 сезон

1

2 сезон

2 сезон

iTunes

1 сезон

RePack

30

Ultimate

ВАЖНО

ИГРА 18+

pack

RePack

MK11
pack

Забери бонус

RePack

jed

!!Акция!!

Alien_Rage

RePack

fifa19

RePack

Assassins Creed: Odyssey

RePack

NEED FOR SPEED™ PAYBACK

4 сезон

9 сезон

Бесстыжие 9 сезон

Все сериалы

все сериалы на PB.wtf

RePack

FAR CRY 5
  

Охотник за разумом / Mindhunter / Сезон: 1 / Серии: 1-10 из 10 (Дэвид Финчер, Эндрю Дуглас, Азиф Кападиа) [2017, триллер, драма, криминал, WEBRip 1080p] MVO [TVShows] pb.wtf

Охотник за разумом через торрент pb.wtf

Размер: 22.1 GB | Добавлен: 1 год 10 мес. назад | Торрент скачан:38 раз
Скачать  

04-02-2019 06:03 Охотник за разумом Скачать торрент  

Охотник за разумом / Mindhunter • Год выпуска: 2017
• Страна: США
• Жанр: триллер, драма, криминал
• Продолжительность: ~00:55:00
• Перевод: Профессиональный (многоголосый закадровый) | TVShows
• Субтитры: Английские

• Режиссёр: Дэвид Финчер, Эндрю Дуглас, Азиф Кападиа

• В ролях:

Джонатан Грофф, Анна Торв, Сонни Валиченти, Холт МакКэллани, Коттер Смит, Сонни Валиченти, Ханна Гросс, Камерон Бриттон, Алекс Морф, Стэйси Рока, Джо Таттл

• Описание:

Молодой специальный агент ФБР Холден Форд (Джонатан Грофф) занимается переговорами с преступниками, захватившими заложников. После того как очередной разговор с убийцей закончился тем, что злоумышленник пустил себе пулю в голову, Форд приходит к выводу, что может на основе косвенных данных составить психологический портрет преступника и тем самым предугадать его последующие ходы. Агент пытается развить эту мысль, но не находит поддержки у руководства, ведь фактически он предлагает отслеживать потенциальных убийц и пресекать их деятельность ещё до совершения преступления. Зато поддержка обнаруживается в лице коллеги Билла Тенча (Холт МакКэллани), занимающегося бихевиоризмом, и университетского психолога доктора Карр (Анна Торв), исследующей поведение серийных убийц. Колеся по Америке с обучающей программой для полицейских, агенты проводят несколько любопытных интервью с содержащимися в тюрьмах преступниками и составляют психологические портреты, в которых пытаются найти закономерности, позволяющие затем останавливать потенциальных маньяков до совершения ими убийств.



• Качество: WEBRip 1080p
• Контейнер: MKV

• Видео: AVC/H.264, 1920x872, 23.976 fps, ~5282 Kbps, 0.165 bit/pixel
• Аудио Rus: AC-3, 48,0 kHz, 2 ch, 384 kbps | TVShows
• Аудио Eng: AC-3, 48,0 kHz, 6 ch, 384 kbps


• Реклама: Отсутствует
General
Unique ID : 17109792605969017634092042848950968054 (0xCDF39E7BB8CB736EFCE22FACB1E5EF6)
Complete name : F:\Mindhunter.S01.1080p.TVShows\Mindhunter.S01E03.1080p.TVShows.mkv
Format : Matroska
Format version : Version 4 / Version 2
File size : 1.90 GiB
Duration : 45 min 19 s
Overall bit rate : 6 002 kb/s
Encoded date : UTC 2018-10-03 10:20:20
Writing application : mkvmerge v24.0.0 ('Beyond The Pale') 64-bit
Writing library : libebml v1.3.6 + libmatroska v1.4.9

Video
ID : 1
Format : AVC
Format/Info : Advanced Video Codec
Format profile : High@L4.1
Format settings : CABAC / 5 Ref Frames
Format settings, CABAC : Yes
Format settings, ReFrames : 5 frames
Codec ID : V_MPEG4/ISO/AVC
Duration : 44 min 53 s
Bit rate : 5 282 kb/s
Width : 1 920 pixels
Height : 872 pixels
Display aspect ratio : 2.2:1
Frame rate mode : Constant
Frame rate : 23.976 (24000/1001) FPS
Color space : YUV
Chroma subsampling : 4:2:0
Bit depth : 8 bits
Scan type : Progressive
Bits/(Pixel*Frame) : 0.132
Stream size : 1.66 GiB (87%)
Writing library : x264 core 148 r2744 b97ae06
Encoding settings : cabac=1 / ref=5 / deblock=1:-3:-3 / analyse=0x3:0x133 / me=umh / subme=10 / psy=1 / psy_rd=1.00:0.00 / mixed_ref=1 / me_range=48 / chroma_me=1 / trellis=2 / 8x8dct=1 / cqm=0 / deadzone=21,11 / fast_pskip=0 / chroma_qp_offset=-2 / threads=24 / lookahead_threads=4 / sliced_threads=0 / nr=0 / decimate=0 / interlaced=0 / bluray_compat=0 / constrained_intra=0 / bframes=9 / b_pyramid=0 / b_adapt=2 / b_bias=0 / direct=3 / weightb=1 / open_gop=0 / weightp=2 / keyint=240 / keyint_min=23 / scenecut=40 / intra_refresh=0 / rc=crf / mbtree=0 / crf=18.0 / qcomp=0.60 / qpmin=10 / qpmax=51 / qpstep=4 / ip_ratio=1.40 / pb_ratio=1.30 / aq=3:0.70
Default : Yes
Forced : No

Audio #1
ID : 2
Format : AC-3
Format/Info : Audio Coding 3
Codec ID : A_AC3
Duration : 45 min 19 s
Bit rate mode : Constant
Bit rate : 384 kb/s
Channel(s) : 6 channels
Channel positions : Front: L C R, Side: L R, LFE
Sampling rate : 48.0 kHz
Frame rate : 31.250 FPS (1536 SPF)
Bit depth : 16 bits
Compression mode : Lossy
Stream size : 124 MiB (6%)
Title : TVShows
Language : Russian
Service kind : Complete Main
Default : Yes
Forced : Yes

Audio #2
ID : 3
Format : AC-3
Format/Info : Audio Coding 3
Codec ID : A_AC3
Duration : 45 min 19 s
Bit rate mode : Constant
Bit rate : 384 kb/s
Channel(s) : 6 channels
Channel positions : Front: L C R, Side: L R, LFE
Sampling rate : 48.0 kHz
Frame rate : 31.250 FPS (1536 SPF)
Bit depth : 16 bits
Compression mode : Lossy
Stream size : 124 MiB (6%)
Title : Original
Language : English
Service kind : Complete Main
Default : No
Forced : No

Text
ID : 4
Format : UTF-8
Codec ID : S_TEXT/UTF8
Codec ID/Info : UTF-8 Plain Text
Duration : 44 min 15 s
Bit rate : 93 b/s
Count of elements : 797
Stream size : 30.3 KiB (0%)
Title : English
Language : English
Default : No
Forced : No
скриншот  скриншот  скриншот  скриншот  
pb.wtf



Скачать Охотник за разумом через торрент http://i95.fastpic.ru/big/2017/1015/78/77337c14c25c61b74c44a3afaad21478.jpg Скачать фильм Охотник за разумом через торрент бесплантно в хорошем качестве Описание: Молодой специальный агент ФБР Холден Форд (Джонатан Грофф) занимается переговорами с преступниками, захватившими заложников. ... 10 10 4
Торрент: Зарегистрирован [2019-02-04 06:03] · скачан: 38 раз
Статус: √ проверено
Размер: 22.1 GB
Как cкачать? Как скачать Охотник за разумом через торрент | qTorrent

% Раздел Тема Автор DL S | L
Зарубежные сериалы [ 52.16 GB ] Охотник за разумом / Mindhunter / Сезон: 1-2 / Серии: 1-19 из 19 [2017-2019 WEBRip 1080p] [DVO] killermax2013 Скачать
2 | 0
Зарубежные сериалы [ 14.05 GB ] Охотник за разумом / Mindhunter / Сезон: 2 / Серии: 1-9 из 9 [2019 WEB-DL 1080p] MVO [Jaskier] bober100 Скачать
1 | 0
Фильмы без перевода [ 13.25 GB ] Охотник за разумом / Mindhunter / Сезон: 2 / Серии: 1- 9 из 9 [2019 WEB-DL 1080p] 2x[Sub] killermax2013 Скачать
1 | 0
Зарубежные сериалы [ 14.66 GB ] Охотник за разумом / Mindhunter / Сезон: 2 / Серии: 1-9 из 9 [2019 WEB-DL 1080p] MVO [Lostfilm] bober100 Скачать
1 | 0
Зарубежные сериалы [ 14.68 GB ] Охотник за разумом / Mindhunter / Сезон: 2 / Серии: 1-9 из 9 [2019 WEB-DL 1080p] [MVO] killermax2013 Скачать
1 | 0
Зарубежные сериалы [ 22.1 GB ] Охотник за разумом / Mindhunter / Сезон: 2 / Серии: 1-9 из 9 [2019 WEBRip 1080p] MVO [Profix Media] bober100 Скачать
1 | 0
Зарубежные сериалы [ 14.65 GB ] Охотник за разумом / Mindhunter / Сезон: 2 / Серии: 1-9 из 9 [2019 WEBRip 1080p] DVO [Gears Media] bober100 Скачать
1 | 0

28-11-2019 20:33  

Отключить всю рекламу на сайте

    Дорогой пользователь! Огромная просьба, поблагодарите релизера, оцените раздачу и оставьте свои комментарий, если Вы скачали Охотник за разумом через торрент бесплатно! Внесите свою лепту в развитие PiratBit!
    Комментировать посты могут только пользователи прошедшие не сложную регистрацию
    Показать сообщения:    

    Охотник за разумом через торрент
    Скачать бесплатно Охотник за разумом
    Охотник за разумом скачать торрент
    Охотник за разумом смотреть онлайн
    Cкачать фильм Охотник за разумом бесплатно
    Охотник за разумом скачать торрент в хорошем качестве
    Охотник за разумом смотреть онлайн бесплатно в хорошем качестве


    Вы не можете начинать темы
    Вы не можете отвечать на сообщения
    Вы не можете редактировать свои сообщения
    Вы не можете удалять свои сообщения
    Вы не можете голосовать в опросах
    Вы не можете прикреплять файлы к сообщениям
    Вы можете скачивать файлы