новый адрес
Ссылка на приватное зеркало всего за 1$. Внимание количество ограничено!!!

iTunes

1+1

iTunes

мы

WEB-DL

1

iTunes

Чернобыль

iTunes

Ральф против интернета

Лицензия

ПШазам

Лицензия

Оно 2

Лицензия

30
pack

Вам бонус

ВАЖНО

!!Акция!!

Alien_RageХит недели

RePack

Resident Evil 21

ИГРА 18+

pack

RePack

jed

!!Акция!!

Alien_Rage

RePack

fifa19

RePack

Assassins Creed: Odyssey

RePack

NEED FOR SPEED™ PAYBACK

3 сезон

9 сезон

Бесстыжие 9 сезон

Все сериалы

все сериалы на PB.wtf

RePack

FAR CRY 5
Ребята, катастрофически не хватает 1900р. для оплаты серверов за Октябрь (всвязи с блокировками трафик упал в 3 раза), 1-2р., выручайте.
  

Седьмой спутник (Виктор Турбин) [1962, СССР, драма, SATRip от AVP Studio] pb.wtf

Седьмой спутник через торрент pb.wtf

Размер: 745 MB | Добавлен: 10 мес. назад | Торрент скачан:3 раза
Скачать  

04-02-2019 08:01 Седьмой спутник Скачать торрент  

Седьмой спутник
Страна: СССР
Производство: Гл. ред. лит.-драм. программ

Жанр: драма
Год выпуска: 1962
Продолжительность: 00:54:47

Перевод: Не требуется
Cубтитры: нет
Оригинальная аудиодорожка: русский

Режиссер: Виктор Турбин

В ролях:
Юрий (Георгий) Кольцов, Вячеслав Невинный, Леонид Губанов, Марк Прудкин, Сергей Блинников, Владимир Муравьёв, Павел Винников, Анна Коломийцева (Блинникова), Клементина Ростовцева, Валериан Квачадзе, Юрий Пузырёв, Игорь Терешин, Пётр Кудлай, Анатолий Вербицкий, Юрий Леонидов, Николай Алексеев, Виктор Петров, Георгий Епифанцев...
Об актёрах подробней

Описание:
По одноименной повести Б.Лавренева.
Передовой русский интеллигент Евгений Павлович Адамов еще в 1905 году, будучи военным прокурором Севастополя, отказался поддерживать обвинение в суде против революционеров. Однако в первые месяцы советской власти он не до конца принял революцию и находился в роли пассивного наблюдателя. Осознав свой долг перед народом, Адамов сражается против контрреволюции и погибает в рядах защитников революционного Петрограда.

Исходник: DVB
Качество видео: SATRip
Формат видео: AVI

Видео: 704x400 (16:9), 25,000 кадров/сек, XviD ~ 1699 kbps avg, 0.241 bit/pixel
Аудио: 48 kHz, Dolby Digital AC3 2.0, 192 kbps

Раздача от:
Общее
Полное имя : Sedmoy.sputnik.1962.SATRip_[New-team]_by_AVP_Studio.avi
Формат : AVI
Формат/Информация : Audio Video Interleave
Размер файла : 745 Мбайт
Продолжительность : 54 м. 46 с.
Общий поток : 1901 Кбит/сек
Программа кодирования : VirtualDubMod 1.5.10.3 | www.virtualdub-fr.org || (build 2550/release)
Библиотека кодирования : VirtualDubMod build 2550/release

Видео
Идентификатор : 0
Формат : MPEG-4 Visual
Профиль формата : Advanced Simple@L5
Настройки формата : BVOP1 / Custom Matrix
Параметр BVOP формата : 1
Параметр QPel формата : Нет
Параметр GMC формата : Без точки перехода
Параметр матрицы формата : Выборочная
Идентификатор кодека : XVID
Идентификатор кодека/Подсказка : XviD
Продолжительность : 54 м. 46 с.
Битрейт : 1699 Кбит/сек
Ширина : 704 пикселя
Высота : 400 пикселей
Соотношение сторон : 16:9
Частота кадров : 25,000 кадров/сек
Цветовое пространство : YUV
Субдискретизация насыщенности : 4:2:0
Битовая глубина : 8 бит
Тип развёртки : Прогрессивная
Метод сжатия : С потерями
Бит/(Пиксели*Кадры) : 0.241
Размер потока : 666 Мбайт (89%)
Библиотека кодирования : XviD 73

Аудио
Идентификатор : 1
Формат : AC-3
Формат/Информация : Audio Coding 3
Коммерческое название : Dolby Digital
Идентификатор кодека : 2000
Продолжительность : 54 м. 46 с.
Вид битрейта : Постоянный
Битрейт : 192 Кбит/сек
Каналы : 2 канала
Channel layout : L R
Частота : 48,0 КГц
Частота кадров : 31,250 кадров/сек (1536 SPF)
Битовая глубина : 16 бит
Метод сжатия : С потерями
Размер потока : 75,2 Мбайт (10%)
Выравнивание : Разделение по промежуткам
Продолжительность промежутка : 40 мс. (1,00 видеокадр)
Время предзагрузки промежутка : 500 мс
pb.wtf



Скачать Седьмой спутник через торрент http://picplus.ru/img/1902/04/e8452e71.png Скачать фильм Седьмой спутник через торрент бесплантно в хорошем качестве Описание:По одноименной повести Б.Лавренева.Передовой русский интеллигент Евгений Павлович Адамов еще в 1905 году, будучи военным ... 5 10 1
Info! Золотая раздача, скачанное не засчитывается.
Торрент: Зарегистрирован [2019-02-04 08:01] · скачан: 3 раз
Статус: √ проверено
Размер: 745 MB
Как cкачать? Как скачать Седьмой спутник через торрент | qTorrent

% Раздел Тема Автор DL S | L
Кино СССР [ 745 MB ] Седьмой спутник [1962 СССР SATRip-AVC от AVP Studio] AVP Studio Скачать
1 | 0

28-11-2019 20:33  

Отключить всю рекламу на сайте

    Дорогой пользователь! Огромная просьба, поблагодарите релизера, оцените раздачу и оставьте свои комментарий, если Вы скачали Седьмой спутник через торрент бесплатно! Внесите свою лепту в развитие PiratBit!
    Комментировать посты могут только пользователи прошедшие не сложную регистрацию
    Показать сообщения:    

    Седьмой спутник через торрент
    Скачать бесплатно Седьмой спутник
    Седьмой спутник скачать торрент
    Седьмой спутник смотреть онлайн
    Cкачать фильм Седьмой спутник бесплатно
    Седьмой спутник скачать торрент в хорошем качестве
    Седьмой спутник смотреть онлайн бесплатно в хорошем качестве


    Вы не можете начинать темы
    Вы не можете отвечать на сообщения
    Вы не можете редактировать свои сообщения
    Вы не можете удалять свои сообщения
    Вы не можете голосовать в опросах
    Вы не можете прикреплять файлы к сообщениям
    Вы можете скачивать файлы