Всегда рабочее зеркало без VPN и Proxy просто перед .vidak.icu напиши любое слово или цифру, Пример http://rud7.vidak.icu

MVO

2 сезон

2 сезон

1

1 сезон

iTunes

2 сезон

13

1 сезон

Deluxe

pack

Рекомендуем

Пиратка

30

ВАЖНО

RePack

MK11

RePack

jed

RePack

fifa19

RePack

RDR2

RePack

NEED FOR SPEED™ PAYBACK

Кинопоиск HD

6 сезон

 Острые козырьки 6 сезон

Все сериалы

все сериалы на PB.wtf

RePack

FAR CRY 5

Anonymous, нам критически не хватает 5601 руб. на оплату серверов и переферии за Апрель, помоги нам пожалуйста, вся надежда только на тебя. В благодарность мы отключим тебе всю рекламу на сайте!

×
  
Magnet ссылка

Дэдпул 2 / Deadpool 2 (Дэвид Литч) [2018, Фантастика, боевик, комедия, приключения, BDRip 1080p] [Театральная версия] DUB [Лицензия] pb.wtf

Дэдпул 2 через торрент pb.wtf

Раздают: 1 [ 0 KB/s ]
Размер: 15.01 GB | Добавлен: 3 года 3 мес. назад | Торрент скачан:335 раз
Смотреть онлайн Дэдпул 2 | Скачать    Ребята, помогите собрать деньги на оплату серверов!!!

19-08-2018 21:19 Дэдпул 2 Скачать торрент  

Дэдпул 2 / Deadpool 2
Год выпуска: 2018
Страна: США
Жанр: Фантастика, боевик, комедия, приключения
Продолжительность: 01:59:20 | Театральная версия
Перевод: Дублированный | Лицензия
Субтитры: Русские (full), английские

Режиссер: Дэвид Литч

rating

В ролях:

Джош Бролин, Райан Рейнольдс, Морена Баккарин, Зази Битц, Брианна Хилдебранд, Брэд Питт, Билл Скарсгард, ТиДжей Миллер, Терри Крюс, Роб Делани

Описание:

Единственный и неповторимый болтливый наемник — вернулся! Ещё более масштабный, ещё более разрушительный и даже ещё более голозадый, чем прежде! Когда в его жизнь врывается суперсолдат с убийственной миссией, Дэдпул вынужден задуматься о дружбе, семье и о том, что на самом деле значит быть героем, попутно надирая 50 оттенков задниц. Потому что иногда чтобы делать хорошие вещи, нужно использовать грязные приёмчики.

Качество: BDRip 1080p
Формат: MKV

Видео: MPEG-4 AVC, 1920x804, 15.3 Mbit/s, 23.976 fps
Аудио#1: 48 kHz, DTS, 5.1, 768 Kbps | Лицензия | RUS |скриншот  
Аудио#2: 48 kHz, AC3, 5.1, 448 Kbps | Лицензия | RUS |скриншот  
Аудио#3: 48 kHz, DTS-ES, 6.1, 1510 Kbps | Оригинал | ENG |
скриншот  
скриншот  скриншот  скриншот  скриншот  скриншот  

General
Unique ID : 296453839369704038237463585083006811728 (0xDF06EEC14D88A87956720F0D2F1E7E50)
Complete name : D:Video111Deadpool.2.2018.BDRip.1080p.ExKinoRay.mkv
Format : Matroska
Format version : Version 4 / Version 2
File size : 15.0 GiB
Duration : 1 h 59 min
Overall bit rate : 18.0 Mb/s
Movie name : Deadpool 2 2018 from ExKinoRay
Encoded date : UTC 2018-08-19 18:15:47
Writing application : mkvmerge v23.0.0 ('The Bride Said No') 64-bit
Writing library : libebml v1.3.6 + libmatroska v1.4.9

Video
ID : 1
Format : AVC
Format/Info : Advanced Video Codec
Format profile : High@L4.1
Format settings : CABAC / 5 Ref Frames
Format settings, CABAC : Yes
Format settings, ReFrames : 5 frames
Codec ID : V_MPEG4/ISO/AVC
Duration : 1 h 59 min
Bit rate : 15.3 Mb/s
Width : 1 920 pixels
Height : 804 pixels
Display aspect ratio : 2.40:1
Frame rate mode : Constant
Frame rate : 23.976 (24000/1001) FPS
Color space : YUV
Chroma subsampling : 4:2:0
Bit depth : 8 bits
Scan type : Progressive
Bits/(Pixel*Frame) : 0.413
Stream size : 12.7 GiB (85%)
Writing library : x264 core 129 r2245 bc13772
Encoding settings : cabac=1 / ref=5 / deblock=1:-3:-3 / analyse=0x3:0x133 / me=umh / subme=11 / psy=1 / psy_rd=1.05:0.10 / mixed_ref=1 / me_range=64 / chroma_me=1 / trellis=2 / 8x8dct=1 / cqm=0 / deadzone=21,11 / fast_pskip=0 / chroma_qp_offset=-3 / threads=6 / lookahead_threads=1 / sliced_threads=0 / nr=0 / decimate=1 / interlaced=0 / bluray_compat=0 / constrained_intra=0 / bframes=8 / b_pyramid=2 / b_adapt=2 / b_bias=0 / direct=3 / weightb=1 / open_gop=0 / weightp=2 / keyint=250 / keyint_min=23 / scenecut=40 / intra_refresh=0 / rc_lookahead=60 / rc=2pass / mbtree=1 / bitrate=15280 / ratetol=1.0 / qcomp=0.60 / qpmin=0 / qpmax=69 / qpstep=4 / cplxblur=20.0 / qblur=0.5 / vbv_maxrate=40000 / vbv_bufsize=30000 / nal_hrd=none / ip_ratio=1.40 / aq=1:0.65
Language : English
Default : Yes
Forced : No

Audio #1
ID : 2
Format : DTS
Format/Info : Digital Theater Systems
Codec ID : A_DTS
Duration : 1 h 59 min
Bit rate mode : Constant
Bit rate : 768 kb/s
Channel(s) : 6 channels
Channel positions : Front: L C R, Side: L R, LFE
Sampling rate : 48.0 kHz
Frame rate : 93.750 FPS (512 SPF)
Bit depth : 24 bits
Compression mode : Lossy
Stream size : 656 MiB (4%)
Title : Dub [License]
Language : Russian
Default : Yes
Forced : Yes

Audio #2
ID : 3
Format : AC-3
Format/Info : Audio Coding 3
Commercial name : Dolby Digital
Codec ID : A_AC3
Duration : 1 h 59 min
Bit rate mode : Constant
Bit rate : 448 kb/s
Channel(s) : 6 channels
Channel positions : Front: L C R, Side: L R, LFE
Sampling rate : 48.0 kHz
Frame rate : 31.250 FPS (1536 SPF)
Bit depth : 16 bits
Compression mode : Lossy
Stream size : 382 MiB (2%)
Title : Dub [License]
Language : Russian
Service kind : Complete Main
Default : No
Forced : No

Audio #3
ID : 4
Format : DTS
Format/Info : Digital Theater Systems
Codec ID : A_DTS
Duration : 1 h 59 min
Bit rate mode : Constant
Bit rate : 1 509 kb/s
Channel(s) : 6 channels
Channel positions : Front: L C R, Side: L R, LFE
Sampling rate : 48.0 kHz
Frame rate : 93.750 FPS (512 SPF)
Bit depth : 24 bits
Compression mode : Lossy
Stream size : 1.26 GiB (8%)
Title : Original
Language : English
Default : No
Forced : No

Text #1
ID : 5
Format : UTF-8
Codec ID : S_TEXT/UTF8
Codec ID/Info : UTF-8 Plain Text
Duration : 1 h 51 min
Bit rate : 116 b/s
Count of elements : 1893
Stream size : 94.6 KiB (0%)
Title : Full
Language : Russian
Default : No
Forced : No

Text #2
ID : 6
Format : UTF-8
Codec ID : S_TEXT/UTF8
Codec ID/Info : UTF-8 Plain Text
Duration : 1 h 51 min
Bit rate : 65 b/s
Count of elements : 1866
Stream size : 53.8 KiB (0%)
Title : Full
Language : English
Default : No
Forced : No

Text #3
ID : 7
Format : UTF-8
Codec ID : S_TEXT/UTF8
Codec ID/Info : UTF-8 Plain Text
Duration : 1 h 58 min
Bit rate : 70 b/s
Count of elements : 2152
Stream size : 61.1 KiB (0%)
Title : SDH
Language : English
Default : No
Forced : No

Menu
00:00:00.000 : en:00:00:00.000
00:02:31.693 : en:00:02:31.693
00:05:53.436 : en:00:05:53.436
00:08:11.658 : en:00:08:11.658
00:11:30.565 : en:00:11:30.565
00:14:52.100 : en:00:14:52.100
00:16:20.980 : en:00:16:20.980
00:20:24.515 : en:00:20:24.515
00:22:00.528 : en:00:22:00.528
00:26:34.468 : en:00:26:34.468
00:31:40.774 : en:00:31:40.774
00:35:16.948 : en:00:35:16.948
00:39:00.380 : en:00:39:00.380
00:41:49.924 : en:00:41:49.924
00:46:16.232 : en:00:46:16.232
00:50:30.027 : en:00:50:30.027
00:53:56.066 : en:00:53:56.066
00:56:27.426 : en:00:56:27.426
00:58:25.711 : en:00:58:25.711
01:00:26.039 : en:01:00:26.039
01:03:59.294 : en:01:03:59.294
01:07:57.490 : en:01:07:57.490
01:09:38.466 : en:01:09:38.466
01:13:27.820 : en:01:13:27.820
01:17:49.123 : en:01:17:49.123
01:20:56.018 : en:01:20:56.018
01:24:05.916 : en:01:24:05.916
01:26:21.343 : en:01:26:21.343
01:29:28.905 : en:01:29:28.905
01:31:41.287 : en:01:31:41.287
01:33:26.351 : en:01:33:26.351
01:35:29.307 : en:01:35:29.307
01:38:54.554 : en:01:38:54.554
01:42:16.172 : en:01:42:16.172
01:45:19.021 : en:01:45:19.021
01:49:00.576 : en:01:49:00.576

pb.wtf



Скачать Дэдпул 2 через торрент http://img11.lostpic.net/2018/08/19/12c5bf93322f1eeee3d52c63a18663b2.jpg Скачать, смотреть онлайн Дэдпул 2 бесплантно в хорошем качестве Описание: Единственный и неповторимый болтливый наемник — вернулся! Ещё более масштабный, ещё более разрушительный и даже ещё более ... 9.3 10 25
Info! Золотая раздача, скачанное не засчитывается.
Торрент: Зарегистрирован [2019-02-04 12:27] · скачан: 335 раз
Статус: √ проверено
Размер: 15.01 GB
Как cкачать? Как скачать Дэдпул 2 через торрент | UTorrent

% Раздел Тема Автор DL S | L
Ultra HD (UHD: 2K, 4K, 8K) — видео сверхвысокой чёткости [ 60.72 GB ] Дэдпул 2 / Deadpool 2 [2018 UHD BDRemux 2160p] [Расширенная версия] DUB [] + 2xAVO sheker187 Скачать
1 | 0
Фильмы 2018 [DVDrip, WEB-DLRip, HDrip] (DUB, MVO) [ 2.18 GB ] Дэдпул 2 / Deadpool 2 [2018 BDRip] [Расширенная версия] DUB [] bober100 Скачать
1 | 0
Фильмы с авторской озвучкой [ 2.18 GB ] Дэдпул 2 / Deadpool 2 [2018 BDRip] AVO [Гаевский] Twi7ter Скачать
1 | 0
Фильмы (HD 720p, 1080p) (48-60 fps) [ 8.03 GB ] Дэдпул 2 / Deadpool 2 [2018 BDRip 720p 60 fps от еnvy / NNNB] DUB | Расширенная версия | еnvy Скачать
3 | 0
Фильмы [HD 720p, 1080p] (Хороший звук DUB, MVO) [ 9.74 GB ] Дэдпул 2 / Deadpool 2 [2018 BDRip 720p] [Расширенная версия] 2xAVO+DUB [] bober100 Скачать
1 | 0
Фильмы [HD 720p, 1080p] (Хороший звук DUB, MVO) [ 20.62 GB ] Дэдпул 2 / Deadpool 2 [2018 BDRip 1080p] [Расширенная версия] 2xAVO+DUB [] bober100 Скачать
1 | 0
Фильмы 2018 [DVDrip, WEB-DLRip, HDrip] (DUB, MVO) [ 806 MB ] Дэдпул 2 / Deadpool 2 [2018 HDRip "BD EUR"] [Расширенная версия] coc900 Скачать
1 | 0

28-11-2019 20:33  

Отключить всю рекламу на сайте

20-08-2018 17:46 Дэдпул 2 Скачать торрент  

Ох, спасибище!!! Шикардосный фильм, давно так не смеялся)))pb.wtf



04-02-2019 16:05 Дэдпул 2 Скачать торрент  

первый получшеpb.wtf



08-02-2019 12:48 Дэдпул 2 Скачать торрент  

реально ржака. норма кено.pb.wtf



17-03-2022 18:18 Дэдпул 2 Скачать торрент  

скорости можноpb.wtf



    Дорогой пользователь! Огромная просьба, поблагодарите релизера, оцените раздачу и оставьте свои комментарий, если Вы скачали Дэдпул 2 через торрент бесплатно!
    Комментировать посты могут только пользователи прошедшие не сложную регистрацию
    Показать сообщения:    

    Дэдпул 2 через торрент
    Скачать бесплатно Дэдпул 2
    Дэдпул 2 скачать торрент
    Дэдпул 2 смотреть онлайн
    Cкачать фильм Дэдпул 2 бесплатно
    Дэдпул 2 скачать торрент в хорошем качестве
    Дэдпул 2 смотреть онлайн бесплатно в хорошем качестве


    Вы не можете начинать темы
    Вы не можете отвечать на сообщения
    Вы не можете редактировать свои сообщения
    Вы не можете удалять свои сообщения
    Вы не можете голосовать в опросах
    Вы не можете прикреплять файлы к сообщениям
    Вы можете скачивать файлы