Всегда рабочее зеркало без VPN и Proxy просто перед .vidak.icu напиши любое слово или цифру, Пример http://wmi0.vidak.icu

Лицензия

MVO

1 сезон

1

1 сезон

iTunes

1 сезон

13

1 сезон

Deluxe

pack

Рекомендуем

Repack

30

ВАЖНО

RePack

MK11

RePack

jed

RePack

fifa19

RePack

RDR2

RePack

NEED FOR SPEED™ PAYBACK

Кинопоиск HD

6 сезон

 Острые козырьки 6 сезон

Все сериалы

все сериалы на PB.wtf

RePack

FAR CRY 5
  
Magnet ссылка

Дэдпул 2 / Deadpool 2 (Дэвид Литч) [2018, фантастика, боевик, комедия, UHD BDRemux 2160p] [Расширенная версия] DUB (rus, ukr) + AVO [Е.Гаевский] pb.wtf

Дэдпул 2 через торрент pb.wtf

Размер: 53.45 GB | Добавлен: 3 года 10 мес. назад | Торрент скачан:114 раз
Смотреть онлайн Дэдпул 2 | Скачать    Ребята, помогите собрать деньги на оплату серверов!!!

22-09-2018 14:32 Дэдпул 2 Скачать торрент  

Дэдпул 2 / Deadpool 2«Беда не приходит одна»
Год выпуска: 2018
Страна: США
Жанр: фантастика, боевик, комедия, приключения
Продолжительность: 02:13:59
Перевод: Дублированный | Лицензия
Субтитры: Russian (Full: Ruf, BD, Focs; Forced), Ukrainian (Full, Forced), English (Full х2, SDH, SDH Colored, Forced)
Режиссер: Дэвид Литч
В ролях:

Райан Рейнольдс (Wade Wilson / Deadpool / Voice of Juggernaut), Джош Бролин (Cable), Морена Баккарин (Vanessa), Джулиан Деннисон (Firefist), Зази Битц (Domino), ТиДжей Миллер (Weasel), Лесли Аггамс (Blind Al), Каран Сони (Dopinder), Брианна Хилдебранд (Negasonic Teenage Warhead), Джек Кеси (Black Tom), Эдди Марсан (Headmaster), Сиори Куцуна (Yukio)
Описание:
Единственный и неповторимый болтливый наемник - вернулся! Ещё более масштабный, ещё более разрушительный и даже ещё более голозадый, чем прежде! Когда в его жизнь врывается суперсолдат с убийственной миссией, Дэдпул вынужден задуматься о дружбе, семье и о том, что на самом деле значит быть героем, попутно надирая 50 оттенков задниц. Потому что иногда чтобы делать хорошие вещи, нужно использовать грязные приёмчики.
Рейтинг:

MPAA: R - Лицам до 17 лет обязательно присутствие взрослого
Качество: UHD BDRemux 2160p
Контейнер: MKV
Видео: HEVC, HDR, 48.8 Мбит/с, 3840x2160, 23.976 кадр/с
Аудио 1: DTS, 5.1, 48 KHz, 768 kbps | Русский (Лицензия EUR)
Аудио 2: AC-3, 5.1, 48 KHz, 448 Kbps | Русский (Лицензия EUR)
Аудио 3: DTS, 5.1, 48 kHz, 1509 kbps | Русский (AVO Е.Гаевский_ненорматив)
Аудио 4: AC-3, 5.1, 48 KHz, 448 Kbps | Украинский (Дубляж BluRay EUR)
Аудио 5: Atmos/TrueHD Audio, 7.1, 48 kHz, 4461 kbps | Английский
Аудио 6: AC-3, 5.1, 48 KHz, 640 Kbps | Английский
Навигация по главам: Есть
Общее
Уникальный идентификатор : 205935547500320784416651808532057461824 (0x9AEDBE66B14E79419F2D9F2CFB5A9440)
Полное имя : G:\Deadpool.2.2018.Super.Duper.Cut.BDRemux.2160p.10bit.HEVC.HDR.4K.x265.Master5.mkv
Формат : Matroska
Версия формата : Version 4 / Version 2
Размер файла : 53,4 Гбайт
Продолжительность : 2 ч. 14 м.
Режим общего битрейта : Переменный
Общий поток : 57,1 Мбит/сек
Название фильма : Deadpool.2.2018.Super.Duper.Cut.BDRemux.2160p.10bit.HEVC.HDR.4K.x265.Master5
Дата кодирования : UTC 2018-09-22 01:17:08
Программа кодирования : mkvmerge v7.9.0 ('Birds') 64bit
Библиотека кодирования : libebml v1.3.1 + libmatroska v1.4.2
Обложка : Yes
Attachments : cover.png

Видео
Идентификатор : 1
Формат : HEVC
Формат/Информация : High Efficiency Video Coding
Коммерческое название : HDR10
Профиль формата : Main [email protected]@High
Идентификатор кодека : V_MPEGH/ISO/HEVC
Продолжительность : 2 ч. 13 м.
Битрейт : 48,8 Мбит/сек
Ширина : 3840 пикселей
Высота : 2160 пикселей
Соотношение сторон : 16:9
Режим частоты кадров : Постоянный
Частота кадров : 23,976 (24000/1001) кадра/сек
Цветовое пространство : YUV
Субдискретизация насыщенности : 4:2:0 (Type 2)
Битовая глубина : 10 бит
Бит/(Пиксели*Кадры) : 0.245
Размер потока : 45,6 Гбайт (85%)
Заголовок : Deadpool.2.2018.Super.Duper.Cut.BDRemux.2160p.10bit.HEVC.HDR.4K.x265.Master5
Библиотека кодирования : ATEME Titan File 3.8.16 (4.8.16.0)
Язык : English
Default : Да
Forced : Нет
Цветовой диапазон : Limited
Основные цвета : BT.2020
Характеристики трансфера : PQ
Коэффициенты матрицы : BT.2020 non-constant
MasteringDisplay_ColorPrimaries : Display P3
MasteringDisplay_Luminance : min: 0.0050 cd/m2, max: 1000 cd/m2

Аудио #1
Идентификатор : 2
Формат : DTS
Формат/Информация : Digital Theater Systems
Идентификатор кодека : A_DTS
Продолжительность : 2 ч. 13 м.
Вид битрейта : Постоянный
Битрейт : 768 Кбит/сек
Каналы : 6 каналов
Расположение каналов : Front: L C R, Side: L R, LFE
Частота : 48,0 КГц
Частота кадров : 93,750 кадра/сек (512 SPF)
Битовая глубина : 24 бит
Метод сжатия : С потерями
Размер потока : 736 Мбайт (1%)
Заголовок : Dub License
Язык : Russian
Default : Да
Forced : Да

Аудио #2
Идентификатор : 3
Формат : AC-3
Формат/Информация : Audio Coding 3
Идентификатор кодека : A_AC3
Продолжительность : 2 ч. 13 м.
Вид битрейта : Постоянный
Битрейт : 448 Кбит/сек
Каналы : 6 каналов
Расположение каналов : Front: L C R, Side: L R, LFE
Частота : 48,0 КГц
Частота кадров : 31,250 кадров/сек (1536 SPF)
Битовая глубина : 16 бит
Метод сжатия : С потерями
Размер потока : 429 Мбайт (1%)
Заголовок : Dub License
Язык : Russian
ServiceKind/String : Complete Main
Default : Нет
Forced : Нет

Аудио #3
Идентификатор : 4
Формат : DTS
Формат/Информация : Digital Theater Systems
Идентификатор кодека : A_DTS
Продолжительность : 2 ч. 14 м.
Вид битрейта : Постоянный
Битрейт : 1509 Кбит/сек
Каналы : 6 каналов
Расположение каналов : Front: L C R, Side: L R, LFE
Частота : 48,0 КГц
Частота кадров : 93,750 кадра/сек (512 SPF)
Битовая глубина : 24 бит
Метод сжатия : С потерями
Размер потока : 1,41 Гбайт (3%)
Заголовок : Gaevskij
Язык : Russian
Default : Нет
Forced : Нет

Аудио #4
Идентификатор : 5
Формат : AC-3
Формат/Информация : Audio Coding 3
Идентификатор кодека : A_AC3
Продолжительность : 2 ч. 13 м.
Вид битрейта : Постоянный
Битрейт : 448 Кбит/сек
Каналы : 6 каналов
Расположение каналов : Front: L C R, Side: L R, LFE
Частота : 48,0 КГц
Частота кадров : 31,250 кадров/сек (1536 SPF)
Битовая глубина : 16 бит
Метод сжатия : С потерями
Размер потока : 429 Мбайт (1%)
Заголовок : Dub, BD EUR
Язык : Ukrainian
ServiceKind/String : Complete Main
Default : Нет
Forced : Нет

Аудио #5
Идентификатор : 6
Формат : TrueHD
Профиль формата : TrueHD+Atmos / TrueHD
Идентификатор кодека : A_TRUEHD
Продолжительность : 2 ч. 13 м.
Вид битрейта : Переменный
Битрейт : 4461 Кбит/сек
Максимальный битрейт : 7485 Кбит/сек
Каналы : Object Based / 8 каналов
Расположение каналов : Object Based / Front: L C R, Side: L R, Back: L R, LFE
Частота : / 48,0 КГц
Частота кадров : 1200,000 кадров/сек (40 SPF)
Метод сжатия : Без потерь
Задержка видео : 32 мс.
Размер потока : 4,18 Гбайт (8%)
Заголовок : Original
Язык : English
Default : Нет
Forced : Нет

Аудио #6
Идентификатор : 7
Формат : AC-3
Формат/Информация : Audio Coding 3
Идентификатор кодека : A_AC3
Продолжительность : 2 ч. 13 м.
Вид битрейта : Постоянный
Битрейт : 640 Кбит/сек
Каналы : 6 каналов
Расположение каналов : Front: L C R, Side: L R, LFE
Частота : 48,0 КГц
Частота кадров : 31,250 кадров/сек (1536 SPF)
Битовая глубина : 16 бит
Метод сжатия : С потерями
Задержка видео : 32 мс.
Размер потока : 613 Мбайт (1%)
Язык : English
ServiceKind/String : Complete Main
Default : Нет
Forced : Нет

Текст #1
Идентификатор : 8
Формат : UTF-8
Идентификатор кодека : S_TEXT/UTF8
Идентификатор кодека/Информация : UTF-8 Plain Text
Продолжительность : 2 ч. 11 м.
Битрейт : 113 бит/сек
ElementCount : 2161
Размер потока : 109 Кбайт (0%)
Заголовок : Ruf
Язык : Russian
Default : Нет
Forced : Нет

Текст #2
Идентификатор : 9
Формат : UTF-8
Идентификатор кодека : S_TEXT/UTF8
Идентификатор кодека/Информация : UTF-8 Plain Text
Продолжительность : 2 ч. 11 м.
Битрейт : 95 бит/сек
ElementCount : 1543
Размер потока : 92,1 Кбайт (0%)
Заголовок : Blu-Ray
Язык : Russian
Default : Нет
Forced : Нет

Текст #3
Идентификатор : 10
Формат : UTF-8
Идентификатор кодека : S_TEXT/UTF8
Идентификатор кодека/Информация : UTF-8 Plain Text
Продолжительность : 2 ч. 11 м.
Битрейт : 108 бит/сек
ElementCount : 2110
Размер потока : 105 Кбайт (0%)
Заголовок : Focs
Язык : Russian
Default : Нет
Forced : Нет

Текст #4
Идентификатор : 11
Формат : UTF-8
Идентификатор кодека : S_TEXT/UTF8
Идентификатор кодека/Информация : UTF-8 Plain Text
Продолжительность : 2 ч. 10 м.
Битрейт : 1 бит/сек
ElementCount : 28
Размер потока : 1,44 Кбайт (0%)
Заголовок : Forced
Язык : Russian
Default : Да
Forced : Да

Текст #5
Идентификатор : 12
Формат : UTF-8
Идентификатор кодека : S_TEXT/UTF8
Идентификатор кодека/Информация : UTF-8 Plain Text
Продолжительность : 2 ч. 12 м.
Битрейт : 98 бит/сек
ElementCount : 1924
Размер потока : 95,5 Кбайт (0%)
Заголовок : Blu-Ray
Язык : Ukrainian
Default : Нет
Forced : Нет

Текст #6
Идентификатор : 13
Формат : UTF-8
Идентификатор кодека : S_TEXT/UTF8
Идентификатор кодека/Информация : UTF-8 Plain Text
Продолжительность : 2 ч. 10 м.
Битрейт : 1 бит/сек
ElementCount : 30
Размер потока : 1,37 Кбайт (0%)
Заголовок : Forced
Язык : Ukrainian
Default : Нет
Forced : Нет

Текст #7
Идентификатор : 14
Формат : UTF-8
Идентификатор кодека : S_TEXT/UTF8
Идентификатор кодека/Информация : UTF-8 Plain Text
Продолжительность : 2 ч. 11 м.
Битрейт : 63 бит/сек
ElementCount : 2117
Размер потока : 61,6 Кбайт (0%)
Заголовок : v1
Язык : English
Default : Нет
Forced : Нет

Текст #8
Идентификатор : 15
Формат : UTF-8
Идентификатор кодека : S_TEXT/UTF8
Идентификатор кодека/Информация : UTF-8 Plain Text
Продолжительность : 2 ч. 11 м.
Битрейт : 63 бит/сек
ElementCount : 1876
Размер потока : 61,0 Кбайт (0%)
Заголовок : v2
Язык : English
Default : Нет
Forced : Нет

Текст #9
Идентификатор : 16
Формат : UTF-8
Идентификатор кодека : S_TEXT/UTF8
Идентификатор кодека/Информация : UTF-8 Plain Text
Продолжительность : 2 ч. 13 м.
Битрейт : 71 бит/сек
ElementCount : 2426
Размер потока : 69,6 Кбайт (0%)
Заголовок : SDH
Язык : English
Default : Нет
Forced : Нет

Текст #10
Идентификатор : 17
Формат : UTF-8
Идентификатор кодека : S_TEXT/UTF8
Идентификатор кодека/Информация : UTF-8 Plain Text
Продолжительность : 2 ч. 13 м.
Битрейт : 89 бит/сек
ElementCount : 2426
Размер потока : 87,1 Кбайт (0%)
Заголовок : SDH Colored
Язык : English
Default : Нет
Forced : Нет

Текст #11
Идентификатор : 18
Формат : UTF-8
Идентификатор кодека : S_TEXT/UTF8
Идентификатор кодека/Информация : UTF-8 Plain Text
Продолжительность : 52 м. 55 с.
Битрейт : 0 бит/сек
ElementCount : 4
Размер потока : 93,0 байт (0%)
Заголовок : Forced
Язык : English
Default : Нет
Forced : Нет

Меню
00:00:00.000 : en:00:00:00.000
00:02:31.693 : en:00:02:31.693
00:07:55.517 : en:00:07:55.517
00:10:46.229 : en:00:10:46.229
00:14:21.194 : en:00:14:21.194
00:17:42.937 : en:00:17:42.937
00:19:10.775 : en:00:19:10.775
00:24:14.370 : en:00:24:14.370
00:27:11.630 : en:00:27:11.630
00:37:17.444 : en:00:37:17.444
00:42:11.821 : en:00:42:11.821
00:44:40.428 : en:00:44:40.428
00:49:30.926 : en:00:49:30.926
00:52:20.471 : en:00:52:20.471
00:56:47.613 : en:00:56:47.613
01:01:00.073 : en:01:01:00.073
01:04:47.050 : en:01:04:47.050
01:07:22.997 : en:01:07:22.997
01:09:45.098 : en:01:09:45.098
01:11:45.426 : en:01:11:45.426
01:15:21.016 : en:01:15:21.016
01:19:19.213 : en:01:19:19.213
01:21:00.189 : en:01:21:00.189
01:24:49.543 : en:01:24:49.543
01:29:10.845 : en:01:29:10.845
01:32:30.420 : en:01:32:30.420
01:36:11.391 : en:01:36:11.391
01:38:18.851 : en:01:38:18.851
01:42:06.329 : en:01:42:06.329
01:44:18.711 : en:01:44:18.711
01:46:03.774 : en:01:46:03.774
01:48:06.730 : en:01:48:06.730
01:51:31.977 : en:01:51:31.977
01:55:05.398 : en:01:55:05.398
01:58:16.047 : en:01:58:16.047
02:02:04.317 : en:02:02:04.317
pb.wtf



Скачать Дэдпул 2 через торрент https://d.radikal.ru/d12/1808/31/f4c53842cdff.png Скачать, смотреть онлайн Дэдпул 2 бесплантно в хорошем качестве Описание: Единственный и неповторимый болтливый наемник - вернулся! Ещё более масштабный, ещё более разрушительный и даже ещё более ... 10 10 3
Info! Золотая раздача, скачанное не засчитывается.
Торрент: Зарегистрирован [2018-09-22 14:32] · скачан: 114 раз
Статус: √ проверено
Размер: 53.45 GB
Как cкачать? Как скачать Дэдпул 2 через торрент | UTorrent

% Раздел Тема Автор DL S | L
Ultra HD (UHD: 2K, 4K, 8K) — видео сверхвысокой чёткости [ 60.72 GB ] Дэдпул 2 / Deadpool 2 [2018 UHD BDRemux 2160p] [Расширенная версия] DUB [] + 2xAVO sheker187 Скачать
1 | 0
Фильмы с авторской озвучкой [ 2.18 GB ] Дэдпул 2 / Deadpool 2 [2018 BDRip] AVO [Гаевский] Twi7ter Скачать
1 | 0
Фильмы [HD 720p, 1080p] (Хороший звук DUB, MVO) [ 9.74 GB ] Дэдпул 2 / Deadpool 2 [2018 BDRip 720p] [Расширенная версия] 2xAVO+DUB [] bober100 Скачать
2 | 0
Фильмы [HD 720p, 1080p] (Хороший звук DUB, MVO) [ 20.62 GB ] Дэдпул 2 / Deadpool 2 [2018 BDRip 1080p] [Расширенная версия] 2xAVO+DUB [] bober100 Скачать
1 | 0
Фильмы (Blu-ray, BD-Remux, HDDVD) [ 38.01 GB ] Дэдпул 2 / Deadpool 2 [2018 BD Remux 1080p] [Расширенная версия] AVO [Е.Гаевский] +DUB [] bober100 Скачать
1 | 0
Фильмы с авторской озвучкой [ 1.46 GB ] Дэдпул 2 / Deadpool 2 [2018 BDRip] AVO [Гаевский] Twi7ter Скачать
1 | 0

28-11-2019 20:33  

Отключить вcю реклaмy на сайте

    Дорогой пользователь! Огромная просьба, поблагодарите релизера, оцените раздачу и оставьте свои комментарий, если Вы скачали Дэдпул 2 через торрент бесплатно!
    Комментировать посты могут только пользователи прошедшие не сложную регистрацию
    Показать сообщения:    

    Дэдпул 2 через торрент
    Скачать бесплатно Дэдпул 2
    Дэдпул 2 скачать торрент
    Дэдпул 2 смотреть онлайн
    Cкачать фильм Дэдпул 2 бесплатно
    Дэдпул 2 скачать торрент в хорошем качестве
    Дэдпул 2 смотреть онлайн бесплатно в хорошем качестве


    Вы не можете начинать темы
    Вы не можете отвечать на сообщения
    Вы не можете редактировать свои сообщения
    Вы не можете удалять свои сообщения
    Вы не можете голосовать в опросах
    Вы не можете прикреплять файлы к сообщениям
    Вы можете скачивать файлы