Всегда рабочее зеркало без VPN и Proxy просто перед .vidak.icu напиши любое слово или цифру, Пример http://imo2.vidak.icu

MVO

MVO

1 сезон

1

1 сезон

iTunes

1 сезон

13

1 сезон

Deluxe

pack

Рекомендуем

Repack

30

ВАЖНО

RePack

MK11

RePack

jed

RePack

fifa19

RePack

RDR2

RePack

NEED FOR SPEED™ PAYBACK

Кинопоиск HD

6 сезон

 Острые козырьки 6 сезон

Все сериалы

все сериалы на PB.wtf

RePack

FAR CRY 5
  
Magnet ссылка

Дэдпул 2 / Deadpool 2 (Дэвид Литч) [2018, фантастика, боевик, комедия, UHD BDRip 2160p] [SDR] [Расширенная версия] Дубляж pb.wtf

Дэдпул 2 через торрент pb.wtf

Размер: 43.88 GB | Добавлен: 3 года 11 мес. назад | Торрент скачан:168 раз
Смотреть онлайн Дэдпул 2 | Скачать    Ребята, помогите собрать деньги на оплату серверов!!!

20-08-2018 16:13 Дэдпул 2 Скачать торрент  

Дэдпул 2 / Deadpool 2«Беда не приходит одна»
Год выпуска: 2018
Страна: США
Жанр: фантастика, боевик, комедия, приключения
Продолжительность: 02:13:59
Перевод: Дублированный | Лицензия
Субтитры: Русские, английские
Режиссер: Дэвид Литч
В ролях:

Райан Рейнольдс (Wade Wilson / Deadpool / Voice of Juggernaut), Джош Бролин (Cable), Морена Баккарин (Vanessa), Джулиан Деннисон (Firefist), Зази Битц (Domino), ТиДжей Миллер (Weasel), Лесли Аггамс (Blind Al), Каран Сони (Dopinder), Брианна Хилдебранд (Negasonic Teenage Warhead), Джек Кеси (Black Tom), Эдди Марсан (Headmaster), Сиори Куцуна (Yukio)
Описание:
Единственный и неповторимый болтливый наемник - вернулся! Ещё более масштабный, ещё более разрушительный и даже ещё более голозадый, чем прежде! Когда в его жизнь врывается суперсолдат с убийственной миссией, Дэдпул вынужден задуматься о дружбе, семье и о том, что на самом деле значит быть героем, попутно надирая 50 оттенков задниц. Потому что иногда чтобы делать хорошие вещи, нужно использовать грязные приёмчики.
Рейтинг:

MPAA: R - Лицам до 17 лет обязательно присутствие взрослого
Качество: UHD BDRip 2160p | SDR
Контейнер: MKV
Видео: MPEG-4 AVC, 40.5 Mбит/с, 3840x1608, 23.976 Кадр/с
Аудио 1: Русский / DTS / 48 KHz / 5.1 ch / 768 Kbps (Лицензия)
Аудио 2: Русский / AC3 / 48 KHz / 5.1 ch / 448 Kbps (Лицензия)
Аудио 3: Английский / TrueHD / 48 KHz / 7.1 ch / 4461 Kbps (Original)
Аудио 4: Английский / AC3 / 48 KHz / 5.1 ch / 640 Kbps (Original)
Навигация по главам: Есть
● О съёмках сиквела было объявлено за 3 дня до релиза первой части «Дэдпула». Райан Рейнольдс подписал контракт на съёмки в сиквеле 6 апреля 2016 года.

● Режиссёр фильма «Дэдпул» (2016) Тим Миллер отказался снимать продолжение из-за творческих разногласий с Райаном Рейнолдсом. Вслед за Тимом Миллером проект покинул Джанки Экс-Эл, нидерландский музыкант и композитор, автор музыки к фильму «Дэдпул» (2016).

● На роль Домино пробовались Мэри Элизабет Уинстед, Лиззи Каплан, Керри Вашингтон, Сиенна Миллер, Руби Роуз, Маккензи Дэвис, Келли Рорбах, Ив Хьюсон, София Бутелла, Стефани Сигман, Сильвия Хукс и Жанель Моне. После долгих размышлений авторы фильма остановились на кандидатуре Зази Битц.
На роль режиссёра сиквела руководство студии рассматривало кандидатуры Дэвида Литча, Руперта Сандерса, Дрю Годдарда и Магнуса Мартенса. Контракт был подписан с Литчем.

● Роб Лайфелд, автор оригинального комикса, хотел видеть Рассела Кроу в роли Кэйбла.

● Персонаж Домино (Зази Битц) в фильме интерпретирована сценаристами темнокожей девушкой с витилиго: нарушением пигментации, выражающемся в исчезновении пигмента меланина на отдельных участках кожи, как у Майкла Джексона и Винни Харлоу. В комиксах Домино представлена с синей кожей и тёмным пятном на левом глазу.
Общее
Уникальный идентификатор : 234433618527852165338256583454408520032 (0xB05E45C86AFB92778428874C426B3160)
Полное имя : F:\Deadpool.2.2018.Super.Duper.Cut.UNRATED.2160p.UHD.BDRip.SDR.8bit.UHD.4K.BDRip.x264.Master5.mkv
Формат : Matroska
Версия формата : Version 4 / Version 2
Размер файла : 43,9 Гбайт
Продолжительность : 2 ч. 13 м.
Режим общего битрейта : Переменный
Общий поток : 46,9 Мбит/сек
Название фильма : Deadpool.2.2018.Super.Duper.Cut.UNRATED.2160p.UHD.BDRip.SDR.8bit.UHD.4K.BDRip.x264.Master5
Дата кодирования : UTC 2018-08-20 13:07:08
Программа кодирования : mkvmerge v7.9.0 ('Birds') 64bit
Библиотека кодирования : libebml v1.3.1 + libmatroska v1.4.2
Обложка : Yes
Attachments : small_cover.jpg / small_cover_land.jpg / cover.jpg / cover_land.jpg / cover.png

Видео
Идентификатор : 1
Формат : AVC
Формат/Информация : Advanced Video Codec
Профиль формата : [email protected]
Настройки формата : CABAC / 5 Ref Frames
Параметр CABAC формата : Да
Параметр RefFrames формата : 5 кадров
Идентификатор кодека : V_MPEG4/ISO/AVC
Продолжительность : 2 ч. 13 м.
Битрейт : 40,5 Мбит/сек
Ширина : 3840 пикселей
Высота : 1608 пикселей
Соотношение сторон : 2,40:1
Режим частоты кадров : Постоянный
Частота кадров : 23,976 (24000/1001) кадра/сек
Цветовое пространство : YUV
Субдискретизация насыщенности : 4:2:0
Битовая глубина : 8 бит
Тип развёртки : Прогрессивная
Бит/(Пиксели*Кадры) : 0.273
Размер потока : 37,9 Гбайт (86%)
Заголовок : Deadpool.2.2018.Super.Duper.Cut.UNRATED.2160p.UHD.BDRip.SDR.8bit.UHD.4K.BDRip.x264.Master5
Библиотека кодирования : x264 core 155 r2901 7d0ff22
Настройки программы : cabac=1 / ref=5 / deblock=1:-1:-1 / analyse=0x3:0x113 / me=umh / subme=10 / psy=1 / psy_rd=1.00:0.15 / mixed_ref=1 / me_range=48 / chroma_me=1 / trellis=2 / 8x8dct=1 / cqm=0 / deadzone=21,11 / fast_pskip=1 / chroma_qp_offset=-3 / threads=50 / lookahead_threads=4 / sliced_threads=0 / nr=0 / decimate=0 / interlaced=0 / bluray_compat=0 / constrained_intra=0 / bframes=3 / b_pyramid=2 / b_adapt=2 / b_bias=0 / direct=3 / weightb=1 / open_gop=0 / weightp=2 / keyint=250 / keyint_min=23 / scenecut=40 / intra_refresh=0 / rc_lookahead=50 / rc=crf / mbtree=1 / crf=18.0 / qcomp=0.60 / qpmin=0 / qpmax=69 / qpstep=4 / ip_ratio=1.40 / aq=1:1.00
Default : Да
Forced : Нет

Аудио #1
Идентификатор : 2
Формат : DTS
Формат/Информация : Digital Theater Systems
Идентификатор кодека : A_DTS
Продолжительность : 2 ч. 13 м.
Вид битрейта : Постоянный
Битрейт : 768 Кбит/сек
Каналы : 6 каналов
Расположение каналов : Front: L C R, Side: L R, LFE
Частота : 48,0 КГц
Частота кадров : 93,750 кадра/сек (512 SPF)
Битовая глубина : 24 бит
Метод сжатия : С потерями
Размер потока : 736 Мбайт (2%)
Заголовок : Dub
Язык : Russian
Default : Да
Forced : Да

Аудио #2
Идентификатор : 3
Формат : AC-3
Формат/Информация : Audio Coding 3
Идентификатор кодека : A_AC3
Продолжительность : 2 ч. 13 м.
Вид битрейта : Постоянный
Битрейт : 448 Кбит/сек
Каналы : 6 каналов
Расположение каналов : Front: L C R, Side: L R, LFE
Частота : 48,0 КГц
Частота кадров : 31,250 кадров/сек (1536 SPF)
Битовая глубина : 16 бит
Метод сжатия : С потерями
Размер потока : 429 Мбайт (1%)
Заголовок : Dub
Язык : Russian
ServiceKind/String : Complete Main
Default : Нет
Forced : Нет

Аудио #3
Идентификатор : 4
Формат : TrueHD
Профиль формата : TrueHD+Atmos / TrueHD
Идентификатор кодека : A_TRUEHD
Продолжительность : 2 ч. 13 м.
Вид битрейта : Переменный
Битрейт : 4461 Кбит/сек
Максимальный битрейт : 7485 Кбит/сек
Каналы : Object Based / 8 каналов
Расположение каналов : Object Based / Front: L C R, Side: L R, Back: L R, LFE
Частота : / 48,0 КГц
Частота кадров : 1200,000 кадров/сек (40 SPF)
Метод сжатия : Без потерь
Размер потока : 4,18 Гбайт (10%)
Язык : English
Default : Нет
Forced : Нет

Аудио #4
Идентификатор : 5
Формат : AC-3
Формат/Информация : Audio Coding 3
Идентификатор кодека : A_AC3
Продолжительность : 2 ч. 13 м.
Вид битрейта : Постоянный
Битрейт : 640 Кбит/сек
Каналы : 6 каналов
Расположение каналов : Front: L C R, Side: L R, LFE
Частота : 48,0 КГц
Частота кадров : 31,250 кадров/сек (1536 SPF)
Битовая глубина : 16 бит
Метод сжатия : С потерями
Размер потока : 613 Мбайт (1%)
Язык : English
ServiceKind/String : Complete Main
Default : Нет
Forced : Нет

Текст #1
Идентификатор : 6
Формат : UTF-8
Идентификатор кодека : S_TEXT/UTF8
Идентификатор кодека/Информация : UTF-8 Plain Text
Продолжительность : 2 ч. 13 м.
Битрейт : 111 бит/сек
ElementCount : 2162
Размер потока : 109 Кбайт (0%)
Заголовок : Full
Язык : Russian
Default : Да
Forced : Нет

Текст #2
Идентификатор : 7
Формат : PGS
Режим смешивания : zlib
Идентификатор кодека : S_HDMV/PGS
Идентификатор кодека/Информация : Picture based subtitle format used on BDs/HD-DVDs
Продолжительность : 2 ч. 13 м.
Битрейт : 15,5 Кбит/сек
ElementCount : 4852
Размер потока : 14,8 Мбайт (0%)
Заголовок : SDH
Язык : English
Default : Нет
Forced : Нет

Текст #3
Идентификатор : 8
Формат : PGS
Режим смешивания : zlib
Идентификатор кодека : S_HDMV/PGS
Идентификатор кодека/Информация : Picture based subtitle format used on BDs/HD-DVDs
Продолжительность : 52 м. 55 с.
Битрейт : 45 бит/сек
ElementCount : 8
Размер потока : 17,5 Кбайт (0%)
Заголовок : English Forced
Язык : English
Default : Нет
Forced : Нет

Меню
00:00:00.000 : en:Chapter 1
00:02:31.693 : en:Chapter 2
00:07:55.516 : en:Chapter 3
00:10:46.228 : en:Chapter 4
00:14:21.193 : en:Chapter 5
00:17:42.936 : en:Chapter 6
00:19:10.774 : en:Chapter 7
00:24:14.369 : en:Chapter 8
00:27:11.630 : en:Chapter 9
00:37:17.443 : en:Chapter 10
00:42:11.820 : en:Chapter 11
00:44:40.427 : en:Chapter 12
00:49:30.926 : en:Chapter 13
00:52:20.470 : en:Chapter 14
00:56:47.612 : en:Chapter 15
01:01:00.073 : en:Chapter 16
01:04:47.049 : en:Chapter 17
01:07:22.997 : en:Chapter 18
01:09:45.097 : en:Chapter 19
01:11:45.426 : en:Chapter 20
01:15:21.016 : en:Chapter 21
01:19:19.212 : en:Chapter 22
01:21:00.188 : en:Chapter 23
01:24:49.542 : en:Chapter 24
01:29:10.845 : en:Chapter 25
01:32:30.419 : en:Chapter 26
01:36:11.390 : en:Chapter 27
01:38:18.851 : en:Chapter 28
01:42:06.328 : en:Chapter 29
01:44:18.710 : en:Chapter 30
01:46:03.774 : en:Chapter 31
01:48:06.730 : en:Chapter 32
01:51:31.976 : en:Chapter 33
01:55:05.398 : en:Chapter 34
01:58:16.047 : en:Chapter 35
02:02:04.317 : en:Chapter 36
pb.wtf



Скачать Дэдпул 2 через торрент https://d.radikal.ru/d42/1808/7e/acd5ca519012.png Скачать, смотреть онлайн Дэдпул 2 бесплантно в хорошем качестве Описание: Единственный и неповторимый болтливый наемник - вернулся! Ещё более масштабный, ещё более разрушительный и даже ещё более ... 9.9 10 7
Info! Золотая раздача, скачанное не засчитывается.
Торрент: Зарегистрирован [2018-08-20 16:13] · скачан: 168 раз
Статус: √ проверено
Размер: 43.88 GB
Как cкачать? Как скачать Дэдпул 2 через торрент | UTorrent

% Раздел Тема Автор DL S | L
Фильмы 2018 [DVDrip, WEB-DLRip, HDrip] (DUB, MVO) [ 806 MB ] Дэдпул 2 / Deadpool 2 [2018 HDRip "BD EUR"] [Расширенная версия] coc900 Скачать
1 | 0
Ultra HD (UHD: 2K, 4K, 8K) — видео сверхвысокой чёткости [ 16.17 GB ] Дэдпул 2 / Deadpool 2 [2018 UHD BDRip 2160p] [Театральная версия] sheker187 Скачать
1 | 0
Фильмы 2018 [DVDrip, WEB-DLRip, HDrip] (DUB, MVO) [ 1.46 GB ] Дэдпул 2 / Deadpool 2 [2018 BDRip] - [] Twi7ter Скачать
1 | 0
Фильмы 2018 [DVDrip, WEB-DLRip, HDrip] (DUB, MVO) [ 2.18 GB ] Дэдпул 2 / Deadpool 2 [2018 BDRip] - [] Twi7ter Скачать
1 | 0
Ultra HD (UHD: 2K, 4K, 8K) — видео сверхвысокой чёткости [ 32.56 GB ] Дэдпул 2 / Deadpool 2 [2018 UHD BDRip 2160p] [SDR] [Театральная версия] sheker187 Скачать
1 | 0
Фильмы 2018 [DVDrip, WEB-DLRip, HDrip] (DUB, MVO) [ 2.18 GB ] Дэдпул 2 / Deadpool 2 [2018 BDRip] - [] Twi7ter Скачать
2 | 0
Фильмы 2018 [DVDrip, WEB-DLRip, HDrip] (DUB, MVO) [ 1.46 GB ] Дэдпул 2 / Deadpool 2 [2018 BDRip] - [] Twi7ter Скачать
1 | 0

28-11-2019 20:33  

Отключить вcю реклaмy на сайте

    Дорогой пользователь! Огромная просьба, поблагодарите релизера, оцените раздачу и оставьте свои комментарий, если Вы скачали Дэдпул 2 через торрент бесплатно!
    Комментировать посты могут только пользователи прошедшие не сложную регистрацию
    Показать сообщения:    

    Дэдпул 2 через торрент
    Скачать бесплатно Дэдпул 2
    Дэдпул 2 скачать торрент
    Дэдпул 2 смотреть онлайн
    Cкачать фильм Дэдпул 2 бесплатно
    Дэдпул 2 скачать торрент в хорошем качестве
    Дэдпул 2 смотреть онлайн бесплатно в хорошем качестве


    Вы не можете начинать темы
    Вы не можете отвечать на сообщения
    Вы не можете редактировать свои сообщения
    Вы не можете удалять свои сообщения
    Вы не можете голосовать в опросах
    Вы не можете прикреплять файлы к сообщениям
    Вы можете скачивать файлы