новый адрес
Ссылка на приватное зеркало всего за 1$. Внимание количество ограничено!!!

iTunes

1+1

iTunes

мы

WEB-DL

1

iTunes

Чернобыль

iTunes

Ральф против интернета

Лицензия

ПШазам

Лицензия

Оно 2

Лицензия

30
pack

Вам бонус

ВАЖНО

!!Акция!!

Alien_RageХит недели

RePack

Resident Evil 21

ИГРА 18+

pack

RePack

jed

!!Акция!!

Alien_Rage

RePack

fifa19

RePack

Assassins Creed: Odyssey

RePack

NEED FOR SPEED™ PAYBACK

3 сезон

9 сезон

Бесстыжие 9 сезон

Все сериалы

все сериалы на PB.wtf

RePack

FAR CRY 5
Ребята, катастрофически не хватает 1900р. для оплаты серверов за Октябрь (всвязи с блокировками трафик упал в 3 раза), 1-2р., выручайте.
  

Дэдпул 2 / Deadpool 2 (Дэвид Литч) [2018 г., фантастика, боевик, комедия, приключения, HDRip, Дубляж "BD EUR"] [Расширенная версия] pb.wtf

Дэдпул 2 через торрент pb.wtf

Раздают: 1 [ 0 KB/s ]
Размер: 806 MB | Добавлен: 1 год 2 мес. назад | Торрент скачан:246 раз
Скачать  

22-09-2018 19:06 Дэдпул 2 Скачать торрент  

Дэдпул 2 / Deadpool 2
Год выпуска: 2018
Страна: США / Donners' Company,Kinberg Genre,Marvel Entertainment
Жанр: фантастика, боевик, комедия, приключения
Продолжительность: 02:13:59
Перевод: Дубляж (BD EUR)
Субтитры: Русские форсированные - вшитые

Режиссер: Дэвид Литч

rating

В ролях: йан Рейнольдс, Джош Бролин, Морена Баккарин, Джулиан Деннисон, Зази Битц, ТиДжей Миллер, Лесли Аггамс, Каран Сони,Брианна Хилдебранд, Джек Кеси

Описание: Единственный и неповторимый болтливый наемник — вернулся! Ещё более масштабный, ещё более разрушительный и даже ещё более голозадый, чем прежде! Когда в его жизнь врывается суперсолдат с убийственной миссией, Дэдпул вынужден задуматься о дружбе, семье и о том, что на самом деле значит быть героем, попутно надирая 50 оттенков задниц. Потому что иногда чтобы делать хорошие вещи, нужно использовать грязные приёмчики.

Качество: HDRip
Формат: AVI
Видео кодек: XviD
Аудио кодек: MP3
Видео: 640x272 (2.35:1), 23.976 fps, XviD build 50 ~703 kbps avg, 0.17 bit/pixel
Аудио: 48 kHz, MPEG Layer 3, 2 ch, ~128.00 kbps avg

Общее
Полное имя : F:\ФИЛЬМЫ\Дэдпул 2.2018.D.HDRip.avi
Формат : AVI
Формат/Информация : Audio Video Interleave
Размер файла : 806 Мбайт
Продолжительность : 2 ч. 13 м.
Общий поток : 841 Кбит/сек
Программа кодирования : VirtualDubMod 1.5.10.3 | www.virtualdub-fr.org || (build 2550/release)
Библиотека кодирования : VirtualDubMod build 2550/release

Видео
Идентификатор : 0
Формат : MPEG-4 Visual
Профиль формата : Advanced Simple@L5
Настройки формата : BVOP2
Параметр BVOP формата : 2
Параметр QPel формата : Нет
Параметр GMC формата : Без точки перехода
Параметр матрицы формата : Default (MPEG)
Идентификатор кодека : XVID
Идентификатор кодека/Подсказка : XviD
Продолжительность : 2 ч. 13 м.
Битрейт : 704 Кбит/сек
Ширина : 640 пикселей
Высота : 272 пикселя
Соотношение сторон : 2,35:1
Частота кадров : 23,976 (24000/1001) кадра/сек
Цветовое пространство : YUV
Субдискретизация насыщенности : 4:2:0
Битовая глубина : 8 бит
Тип развёртки : Прогрессивная
Метод сжатия : С потерями
Бит/(Пиксели*Кадры) : 0.169
Размер потока : 675 Мбайт (84%)
Библиотека кодирования : XviD 1.2.1 (UTC 2008-12-04)

Аудио
Идентификатор : 1
Формат : MPEG Audio
Версия формата : Version 1
Профиль формата : Layer 3
Настройки формата : Joint stereo / MS Stereo
Идентификатор кодека : 55
Идентификатор кодека/Подсказка : MP3
Продолжительность : 2 ч. 13 м.
Вид битрейта : Постоянный
Битрейт : 128 Кбит/сек
Каналы : 2 канала
Частота : 48,0 КГц
Частота кадров : 41,667 кадра/сек (1152 SPF)
Метод сжатия : С потерями
Размер потока : 123 Мбайт (15%)
Выравнивание : Соединение по промежуткам
Продолжительность промежутка : 42 мс. (1,00 видеокадр)
Время предзагрузки промежутка : 504 мс.
Библиотека кодирования : LAME3.99r
Настройки программы : -m j -V 4 -q 2 -lowpass 17 -b 128

pb.wtf



Скачать Дэдпул 2 через торрент http://pic1.kartinco.top/images/11/8shwe.jpg Скачать фильм Дэдпул 2 через торрент бесплантно в хорошем качестве Описание: Единственный и неповторимый болтливый наемник — вернулся! Ещё более масштабный, ещё более разрушительный и даже ещё более ... 10 10 7
Торрент: Зарегистрирован [2018-09-22 19:06] · скачан: 246 раз
Статус: √ проверено
Размер: 806 MB
Как cкачать? Как скачать Дэдпул 2 через торрент | qTorrent

% Раздел Тема Автор DL S | L
Ultra HD (UHD: 2K, 4K, 8K) — видео сверхвысокой чёткости [ 60.72 GB ] Дэдпул 2 / Deadpool 2 [2018 UHD BDRemux 2160p] [Расширенная версия] DUB [] + 2xAVO sheker187 Скачать
1 | 0
Фильмы [HD 720p, 1080p] (Хороший звук DUB, MVO) [ 15.01 GB ] Дэдпул 2 / Deadpool 2 [2018 BDRip 1080p] [Театральная версия] DUB [] bober100 Скачать
3 | 0
Фильмы 2018 [DVDrip, WEB-DLRip, HDrip] (DUB, MVO) [ 2.18 GB ] Дэдпул 2 / Deadpool 2 [2018 BDRip] [Расширенная версия] DUB [] bober100 Скачать
6 | 0
Фильмы с авторской озвучкой [ 2.18 GB ] Дэдпул 2 / Deadpool 2 [2018 BDRip] AVO [Гаевский] Twi7ter Скачать
1 | 0
Фильмы (HD 720p, 1080p) (48-60 fps) [ 8.03 GB ] Дэдпул 2 / Deadpool 2 [2018 BDRip 720p 60 fps от еnvy / NNNB] DUB | Расширенная версия | еnvy Скачать
16 | 0
Фильмы [HD 720p, 1080p] (Хороший звук DUB, MVO) [ 9.74 GB ] Дэдпул 2 / Deadpool 2 [2018 BDRip 720p] [Расширенная версия] 2xAVO+DUB [] bober100 Скачать
1 | 0
Фильмы [HD 720p, 1080p] (Хороший звук DUB, MVO) [ 20.62 GB ] Дэдпул 2 / Deadpool 2 [2018 BDRip 1080p] [Расширенная версия] 2xAVO+DUB [] bober100 Скачать
1 | 0

28-11-2019 20:33  

Отключить всю рекламу на сайте

23-09-2018 10:22 Дэдпул 2 Скачать торрент  

красавчик спасибо за субтитры давно ждалpb.wtf



    Дорогой пользователь! Огромная просьба, поблагодарите релизера, оцените раздачу и оставьте свои комментарий, если Вы скачали Дэдпул 2 через торрент бесплатно! Внесите свою лепту в развитие PiratBit!
    Комментировать посты могут только пользователи прошедшие не сложную регистрацию
    Показать сообщения:    

    Дэдпул 2 через торрент
    Скачать бесплатно Дэдпул 2
    Дэдпул 2 скачать торрент
    Дэдпул 2 смотреть онлайн
    Cкачать фильм Дэдпул 2 бесплатно
    Дэдпул 2 скачать торрент в хорошем качестве
    Дэдпул 2 смотреть онлайн бесплатно в хорошем качестве


    Вы не можете начинать темы
    Вы не можете отвечать на сообщения
    Вы не можете редактировать свои сообщения
    Вы не можете удалять свои сообщения
    Вы не можете голосовать в опросах
    Вы не можете прикреплять файлы к сообщениям
    Вы можете скачивать файлы