Всегда рабочее зеркало без VPN и Proxy просто перед .vidak.icu напиши любое слово или цифру, Пример http://gmgb.vidak.icu

Лицензия

MVO

1 сезон

1

1 сезон

iTunes

1 сезон

13

1 сезон

Deluxe

pack

Рекомендуем

Repack

30

ВАЖНО

RePack

MK11

RePack

jed

RePack

fifa19

RePack

RDR2

RePack

NEED FOR SPEED™ PAYBACK

Кинопоиск HD

6 сезон

 Острые козырьки 6 сезон

Все сериалы

все сериалы на PB.wtf

RePack

FAR CRY 5
  
Magnet ссылка

Остров собак / Isle of Dogs (Уэс Андерсон) [2018, Мультфильм, фантастика, фэнтези, драма, комедия, приключения, BDRip-AVC] [Локализованная версия] DUB [Лицензия BD EUR] pb.wtf

Остров собак через торрент pb.wtf

Размер: 1.53 GB | Добавлен: 3 года 11 мес. назад | Торрент скачан:366 раз
Смотреть онлайн Остров собак | Скачать    Ребята, помогите собрать деньги на оплату серверов!!!

31-08-2018 18:25 Остров собак Скачать торрент  

Остров собак / Isle of Dogs
Год выпуска: 2018
Страна: США , Германия
Жанр: Мультфильм, фантастика, фэнтези, драма, комедия, приключения
Продолжительность: 01:41:10
Перевод: Дублированный | Лицензия BD EUR
Субтитры: Русские (форс., полные), Английские (полные, SDH)

Режиссер: Уэс Андерсон

rating

В ролях:

Брайан Крэнстон, Кою Ранкин, Эдвард Нортон, Боб Бэлабан, Билл Мюррей, Джефф Голдблюм, Кунъити Номура, Акира Такаяма, Грета Гервиг, Фрэнсис МакДорманд

Описание:

История 12-летнего мальчика Атари Кобаяши, опекаемого коррумпированным мэром Кобаяши. Когда по Указу последнего все домашние собаки города Мегасаки изгоняются на громадную свалку, Атари в одиночку отправляется на миниатюрном летательном аппарате на мусорный остров, чтобы найти своего верного пса по прозвищу Спотс. Там на острове вместе со стаей новых друзей-дворняг он начнет эпичное путешествие, которое решит будущую судьбу всей Префектуры.

Качество: BDRip-AVC | Локализованная версия
Формат: MKV

Видео: 1024x428 (16:9), 23,976 fps, x264 ~1 260 kbps avg, 0.120 bit/pixel
Аудио#1: 48 kHz, AC3 Dolby Digital, 3/2 (L,C,R,l,r) + LFE ch, ~448.00 kbps avg | RUS (Лицензия)
Аудио#2: 48 kHz, AC3 Dolby Digital, 3/2 (L,C,R,l,r) + LFE ch, ~448.00 kbps avg | ENG
скриншот  скриншот  скриншот  скриншот  скриншот  

Общее
Уникальный идентификатор : 166760005915627433867302746325143197271 (0x7D74CF138A4B382D716F93A0FE831657)
Полное имя : F:OlLanDGroupIsle.Of.Dogs.2018.BDRip(AVC).OlLanDGroup.mkv
Формат : Matroska
Версия формата : Version 4 / Version 2
Размер файла : 1,53 Гбайт
Продолжительность : 1 ч. 41 м.
Общий поток : 2158 Кбит/сек
Название фильма : Isle.Of.Dogs.2018 #TorpedoUK#
Дата кодирования : UTC 2018-08-31 18:11:12
Программа кодирования : mkvmerge v25.0.0 ('Prog Noir') 64-bit
Библиотека кодирования : libebml v1.3.6 + libmatroska v1.4.9

Видео
Идентификатор : 1
Формат : AVC
Формат/Информация : Advanced Video Codec
Профиль формата : [email protected]
Параметр CABAC формата : Да
Параметр ReFrames формата : 10 кадров
Идентификатор кодека : V_MPEG4/ISO/AVC
Продолжительность : 1 ч. 41 м.
Битрейт : 1260 Кбит/сек
Ширина : 1024 пикселя
Высота : 428 пикселей
Соотношение сторон : 2,40:1
Режим частоты кадров : Постоянный
Частота кадров : 23,976 (24000/1001) кадра/сек
Цветовое пространство : YUV
Субдискретизация насыщенности : 4:2:0
Битовая глубина : 8 бит
Тип развёртки : Прогрессивная
Бит/(Пиксели*Кадры) : 0.120
Размер потока : 912 Мбайт (58%)
Библиотека кодирования : x264 core 146 r2538 121396c
Настройки программы : cabac=1 / ref=10 / deblock=1:-3:-3 / analyse=0x3:0x113 / me=umh / subme=11 / psy=1 / psy_rd=1.00:0.03 / mixed_ref=1 / me_range=48 / chroma_me=1 / trellis=2 / 8x8dct=1 / cqm=0 / deadzone=21,11 / fast_pskip=1 / chroma_qp_offset=-3 / threads=6 / lookahead_threads=1 / sliced_threads=0 / nr=0 / decimate=1 / interlaced=0 / bluray_compat=0 / constrained_intra=0 / bframes=10 / b_pyramid=2 / b_adapt=2 / b_bias=0 / direct=3 / weightb=1 / open_gop=0 / weightp=2 / keyint=240 / keyint_min=23 / scenecut=40 / intra_refresh=0 / rc_lookahead=40 / rc=2pass / mbtree=1 / bitrate=1260 / ratetol=1.0 / qcomp=0.60 / qpmin=0 / qpmax=69 / qpstep=4 / cplxblur=20.0 / qblur=0.5 / vbv_maxrate=50000 / vbv_bufsize=62500 / nal_hrd=none / filler=0 / ip_ratio=1.40 / aq=1:1.00
Язык : English
Default : Да
Forced : Нет

Аудио #1
Идентификатор : 2
Формат : AC-3
Формат/Информация : Audio Coding 3
Расширение режима : CM (complete main)
Параметр Endianness формата : Big
Идентификатор кодека : A_AC3
Продолжительность : 1 ч. 41 м.
Вид битрейта : Постоянный
Битрейт : 448 Кбит/сек
Каналы : 6 каналов
Расположение каналов : Front: L C R, Side: L R, LFE
Частота : 48,0 КГц
Частота кадров : 31,250 кадров/сек (1536 spf)
Битовая глубина : 16 бит
Метод сжатия : С потерями
Размер потока : 324 Мбайт (21%)
Заголовок : License
Язык : Russian
Default : Да
Forced : Нет

Аудио #2
Идентификатор : 3
Формат : AC-3
Формат/Информация : Audio Coding 3
Расширение режима : CM (complete main)
Параметр Endianness формата : Big
Идентификатор кодека : A_AC3
Продолжительность : 1 ч. 41 м.
Вид битрейта : Постоянный
Битрейт : 448 Кбит/сек
Каналы : 6 каналов
Расположение каналов : Front: L C R, Side: L R, LFE
Частота : 48,0 КГц
Частота кадров : 31,250 кадров/сек (1536 spf)
Битовая глубина : 16 бит
Метод сжатия : С потерями
Размер потока : 324 Мбайт (21%)
Заголовок : Original
Язык : English
Default : Нет
Forced : Нет

Текст #1
Идентификатор : 4
Формат : UTF-8
Идентификатор кодека : S_TEXT/UTF8
Идентификатор кодека/Информация : UTF-8 Plain Text
Продолжительность : 1 ч. 40 м.
Битрейт : 10 бит/сек
Count of elements : 150
Размер потока : 7,59 Кбайт (0%)
Заголовок : Forced
Язык : Russian
Default : Да
Forced : Нет

Текст #2
Идентификатор : 5
Формат : UTF-8
Идентификатор кодека : S_TEXT/UTF8
Идентификатор кодека/Информация : UTF-8 Plain Text
Продолжительность : 1 ч. 33 м.
Битрейт : 94 бит/сек
Count of elements : 1215
Размер потока : 65,1 Кбайт (0%)
Заголовок : Full
Язык : Russian
Default : Нет
Forced : Нет

Текст #3
Идентификатор : 6
Формат : UTF-8
Идентификатор кодека : S_TEXT/UTF8
Идентификатор кодека/Информация : UTF-8 Plain Text
Продолжительность : 1 ч. 33 м.
Битрейт : 56 бит/сек
Count of elements : 1203
Размер потока : 38,8 Кбайт (0%)
Заголовок : Full
Язык : English
Default : Нет
Forced : Нет

Текст #4
Идентификатор : 7
Формат : UTF-8
Идентификатор кодека : S_TEXT/UTF8
Идентификатор кодека/Информация : UTF-8 Plain Text
Продолжительность : 1 ч. 35 м.
Битрейт : 63 бит/сек
Count of elements : 1429
Размер потока : 44,4 Кбайт (0%)
Заголовок : SDH
Язык : English
Default : Нет
Forced : Нет

Меню
00:00:00.000 : en:00:00:00.000
00:03:36.049 : en:00:03:36.049
00:07:53.181 : en:00:07:53.181
00:13:41.195 : en:00:13:41.195
00:16:39.373 : en:00:16:39.373
00:20:45.035 : en:00:20:45.035
00:26:04.312 : en:00:26:04.312
00:29:27.265 : en:00:29:27.265
00:35:58.573 : en:00:35:58.573
00:40:36.475 : en:00:40:36.475
00:44:46.433 : en:00:44:46.433
00:48:15.100 : en:00:48:15.100
00:52:07.499 : en:00:52:07.499
00:56:06.780 : en:00:56:06.780
00:59:07.085 : en:00:59:07.085
01:03:17.710 : en:01:03:17.710
01:08:45.079 : en:01:08:45.079
01:14:03.230 : en:01:14:03.230
01:16:34.965 : en:01:16:34.965
01:20:46.925 : en:01:20:46.925
01:23:36.219 : en:01:23:36.219
01:30:09.737 : en:01:30:09.737
01:33:02.493 : en:01:33:02.493
01:35:41.235 : en:01:35:41.235

pb.wtf



Скачать Остров собак через торрент http://i104.fastpic.ru/big/2018/0710/ab/49995345736b357deb0046f8e771a8ab.jpg Скачать, смотреть онлайн Остров собак бесплантно в хорошем качестве Описание: История 12-летнего мальчика Атари Кобаяши, опекаемого коррумпированным мэром Кобаяши. Когда по Указу последнего все домашние ... 10 10 3
Торрент: Зарегистрирован [2018-08-31 18:25] · скачан: 366 раз
Статус: √ проверено
Размер: 1.53 GB
Как cкачать? Как скачать Остров собак через торрент | UTorrent

% Раздел Тема Автор DL S | L
Иностранные мультфильмы [ 2.1 GB ] Остров собак / Isle of Dogs [2018 Мультфильм HDRip] [] killermax2013 Скачать
1 | 0
Зарубежные Мультфильмы (BDRip 1080p, 720p, Blu-ray, BD-Remux) [ 22.5 GB ] Остров собак / Isle of Dogs [2018 Мультфильм BD Remux 1080p] DUB [] bober100 Скачать
1 | 0
Зарубежные Мультфильмы (BDRip 1080p, 720p, Blu-ray, BD-Remux) [ 8.17 GB ] Остров собак / Isle of Dogs [2018 Мультфильм BDRip 1080p] DUB [ BD EUR] bober100 Скачать
2 | 0
Иностранные мультфильмы [ 745 MB ] Остров собак / Isle of Dogs [2018 Мультфильм BDRip] [Локализованная версия] DUB [ BD EUR] bober100 Скачать
1 | 0
Иностранные мультфильмы [ 1.46 GB ] Остров собак / Isle of Dogs [2018 Мультфильм BDRip] [Локализованная версия] DUB [ BD EUR] bober100 Скачать
1 | 0
Зарубежные Мультфильмы (WEB-DL 720p, 1080p) [ 3.13 GB ] Остров собак / Isle of Dogs [2018 Мультфильм WEB-DL 720p] bober100 Скачать
1 | 0
Зарубежные Мультфильмы (BDRip 1080p, 720p, Blu-ray, BD-Remux) [ 4.05 GB ] Остров собак / Isle of Dogs [2018 Мультфильм BDRip 720p] bober100 Скачать
1 | 0

28-11-2019 20:33  

Отключить вcю реклaмy на сайте

    Дорогой пользователь! Огромная просьба, поблагодарите релизера, оцените раздачу и оставьте свои комментарий, если Вы скачали Остров собак через торрент бесплатно!
    Комментировать посты могут только пользователи прошедшие не сложную регистрацию
    Показать сообщения:    

    Остров собак через торрент
    Скачать бесплатно Остров собак
    Остров собак скачать торрент
    Остров собак смотреть онлайн
    Cкачать фильм Остров собак бесплатно
    Остров собак скачать торрент в хорошем качестве
    Остров собак смотреть онлайн бесплатно в хорошем качестве


    Вы не можете начинать темы
    Вы не можете отвечать на сообщения
    Вы не можете редактировать свои сообщения
    Вы не можете удалять свои сообщения
    Вы не можете голосовать в опросах
    Вы не можете прикреплять файлы к сообщениям
    Вы можете скачивать файлы