Ссылка на приватное зеркало всего за 1$. Внимание количество ограничено!!!

OK

1+1

iTunes

мы

OK

1

WEB-DLRip

Джокер

Пифагор

Ведьмак / The Witcher сериал

Лицензия

ПШазам

ОК

Оно 2

iTunes

30
pack

Вам бонус

ВАЖНО

!!Акция!!

Alien_RageХит недели

RePack

Resident Evil 21

ИГРА 18+

pack

RePack

jed

!!Акция!!

Alien_Rage

RePack

fifa19

RePack

Assassins Creed: Odyssey

RePack

NEED FOR SPEED™ PAYBACK

4 сезон

9 сезон

Бесстыжие 9 сезон

Все сериалы

все сериалы на PB.wtf

RePack

FAR CRY 5
  

Щелкунчик и четыре королевства / The Nutcracker and the Four Realms (Лассе Халльстрём, Джо Джонстон) [2018, фэнтези, приключения, семейный, BDRemux 1080p] DUB (rus, ukr) [Лицензия] pb.wtf

Щелкунчик и четыре королевства через торрент pb.wtf

Раздают: 1 [ 0 KB/s ]
Размер: 26.02 GB | Добавлен: 9 мес. назад | Торрент скачан:64 раза
Скачать  

04-02-2019 16:15 Щелкунчик и четыре королевства Скачать торрент  

Щелкунчик и четыре королевства / The Nutcracker and the Four Realms
««Пришло время открыть тайну»»

Год выпуска: 2018
Страна: США
Жанр: фэнтези, приключения, семейный
Продолжительность: 01:39:16
Перевод: Дублированный | Лицензия
Субтитры: Русские, английские
Режиссер: Лассе Халльстрём , Джо Джонстон
В ролях:

Маккензи Фой (Clara), Джейден Фовора-Найт (Phillip), Кира Найтли (Sugar Plum), Хелен Миррен (Mother Ginger), Морган Фриман (Drosselmeyer), Мисти Коуплэнд (Ballerina Princess), Эухенио Дербес (Hawthorne), Ричард Э. Грант (Shiver), Мэттью Макфэдиен (Mr. Stahlbaum), Сергей Полунин (Sweets Cavalier), Том Свит (Fritz), Мира Сайал (Cook)
Описание:
Получив необычный подарок на Рождество, юная Клара отправляется в захватывающее путешествие по загадочным местам: Стране Снегов, Стране Цветов и Стране Сладостей. Но девушке нужно попасть и в четвертое королевство, где ей придется столкнуться с целой армией мышей во главе с невероятно опасным Мышиным Королем.
Рейтинг:

MPAA: PG - Рекомендуется присутствие родителей
Качество: BDRemux 1080p
Формат: MKV
Видео: AVC/H.264, 1920x1080 (16:9), ~31.1 Mbps, 23.976 fps
Аудио #1: AC-3, 5.1, 48 KHz, 640 Kbps | Русский (Лицензия BD CEE)
Аудио #2: AC-3, 5.1, 48 KHz, 448 Kbps | Украинский (Лицензия BD CEE)
Аудио #2: DTS-HD MA, 7.1, 48 kHz, 5358 kbps, 24-bit | Английский
Навигация по главам: есть

Общее
Уникальный идентификатор : 171816487082415439994995125918291123849 (0x8142A6D881F5C53C267B1A8AD82EDE89)
Полное имя : D:\Фильмы\Schelkunchik.i.chetyre.korolevstva.2018.BDRemux.1080p.NNMClub.mkv
Формат : Matroska
Версия формата : Version 4
Размер файла : 26,0 Гбайт
Продолжительность : 1 ч. 39 м.
Режим общего битрейта : Переменный
Общий поток : 37,5 Мбит/сек
Название фильма : Schelkunchik.i.chetyre.korolevstva.2018.BDRemux.1080p.NNMClub
Дата кодирования : UTC 2019-03-30 16:47:54
Программа кодирования : mkvmerge v32.0.0 ('Astral Progressions') 64-bit
Библиотека кодирования : libebml v1.3.7 + libmatroska v1.5.0
Attachments : The-Nutcracker-and-the-Four-Realms.jpg

Видео
Идентификатор : 1
Формат : AVC
Формат/Информация : Advanced Video Codec
Профиль формата : High@L4.1
Настройки формата : CABAC / 4 Ref Frames
Параметр CABAC формата : Да
Параметр RefFrames формата : 4 кадра
Идентификатор кодека : V_MPEG4/ISO/AVC
Продолжительность : 1 ч. 39 м.
Вид битрейта : Переменный
Битрейт : 31,1 Мбит/сек
Максимальный битрейт : 34,7 Мбит/сек
Ширина : 1920 пикселей
Высота : 1080 пикселей
Соотношение сторон : 16:9
Режим частоты кадров : Постоянный
Частота кадров : 23,976 (24000/1001) кадра/сек
Цветовое пространство : YUV
Субдискретизация насыщенности : 4:2:0
Битовая глубина : 8 бит
Тип развёртки : Прогрессивная
Бит/(Пиксели*Кадры) : 0.625
Размер потока : 21,5 Гбайт (83%)
Язык : English
Default : Да
Forced : Нет

Аудио #1
Идентификатор : 2
Формат : AC-3
Формат/Информация : Audio Coding 3
Коммерческое название : Dolby Digital
Идентификатор кодека : A_AC3
Продолжительность : 1 ч. 39 м.
Вид битрейта : Постоянный
Битрейт : 640 Кбит/сек
Каналы : 6 каналов
Channel layout : L R C LFE Ls Rs
Частота : 48,0 КГц
Частота кадров : 31,250 кадров/сек (1536 SPF)
Битовая глубина : 16 бит
Метод сжатия : С потерями
Размер потока : 454 Мбайт (2%)
Заголовок : Licence
Язык : Russian
ServiceKind/String : Complete Main
Default : Да
Forced : Нет

Аудио #2
Идентификатор : 3
Формат : AC-3
Формат/Информация : Audio Coding 3
Коммерческое название : Dolby Digital
Идентификатор кодека : A_AC3
Продолжительность : 1 ч. 39 м.
Вид битрейта : Постоянный
Битрейт : 448 Кбит/сек
Каналы : 6 каналов
Channel layout : L R C LFE Ls Rs
Частота : 48,0 КГц
Частота кадров : 31,250 кадров/сек (1536 SPF)
Битовая глубина : 16 бит
Метод сжатия : С потерями
Размер потока : 318 Мбайт (1%)
Заголовок : Licence
Язык : Ukrainian
ServiceKind/String : Complete Main
Default : Нет
Forced : Нет

Аудио #3
Идентификатор : 4
Формат : DTS XLL
Формат/Информация : Digital Theater Systems
Коммерческое название : DTS-HD Master Audio
Идентификатор кодека : A_DTS
Продолжительность : 1 ч. 39 м.
Вид битрейта : Переменный
Битрейт : 5358 Кбит/сек
Каналы : 8 каналов
Channel layout : C L R LFE Lb Rb Lss Rss
Частота : 48,0 КГц
Частота кадров : 93,750 кадра/сек (512 SPF)
Битовая глубина : 24 бит
Метод сжатия : Без потерь
Размер потока : 3,71 Гбайт (14%)
Заголовок : Original
Язык : English
Default : Нет
Forced : Нет

Текст #1
Идентификатор : 5
Формат : UTF-8
Идентификатор кодека : S_TEXT/UTF8
Идентификатор кодека/Информация : UTF-8 Plain Text
Продолжительность : 1 ч. 27 м.
Битрейт : 72 бит/сек
ElementCount : 1043
Размер потока : 46,6 Кбайт (0%)
Заголовок : Full
Язык : Russian
Default : Нет
Forced : Нет

Текст #2
Идентификатор : 6
Формат : UTF-8
Идентификатор кодека : S_TEXT/UTF8
Идентификатор кодека/Информация : UTF-8 Plain Text
Продолжительность : 1 ч. 36 м.
Битрейт : 72 бит/сек
ElementCount : 1339
Размер потока : 51,4 Кбайт (0%)
Заголовок : SDH
Язык : Russian
Default : Нет
Forced : Нет

Текст #3
Идентификатор : 7
Формат : UTF-8
Идентификатор кодека : S_TEXT/UTF8
Идентификатор кодека/Информация : UTF-8 Plain Text
Продолжительность : 1 ч. 27 м.
Битрейт : 43 бит/сек
ElementCount : 1096
Размер потока : 27,7 Кбайт (0%)
Заголовок : Full
Язык : English
Default : Нет
Forced : Нет

Текст #4
Идентификатор : 8
Формат : UTF-8
Идентификатор кодека : S_TEXT/UTF8
Идентификатор кодека/Информация : UTF-8 Plain Text
Продолжительность : 1 ч. 36 м.
Битрейт : 45 бит/сек
ElementCount : 1338
Размер потока : 32,4 Кбайт (0%)
Заголовок : SDH
Язык : English
Default : Нет
Forced : Нет

Меню
00:00:00.000 : :Глава 01
00:08:39.101 : :Глава 02
00:16:47.256 : :Глава 03
00:25:37.744 : :Глава 04
00:34:20.891 : :Глава 05
00:43:28.397 : :Глава 06
00:48:31.992 : :Глава 07
00:56:07.655 : :Глава 08
00:59:09.545 : :Глава 09
01:04:57.310 : :Глава 10
01:11:49.722 : :Глава 11
01:18:10.519 : :Глава 12
01:22:04.002 : :Глава 13
01:30:06.274 : :Глава 14
pb.wtf



Скачать Щелкунчик и четыре королевства через торрент https://b.radikal.ru/b33/1903/d0/1bd3884cb95c.png Скачать фильм Щелкунчик и четыре королевства через торрент бесплантно в хорошем качестве Описание: Получив необычный подарок на Рождество, юная Клара отправляется в захватывающее путешествие по загадочным местам: Стране Снегов, ... 10 10 3
Торрент: Зарегистрирован [2019-03-31 01:22] · скачан: 64 раз
Статус: √ проверено
Размер: 26.02 GB
Как cкачать? Как скачать Щелкунчик и четыре королевства через торрент | qTorrent

% Раздел Тема Автор DL S | L
T Фильмы с украинским озвучиванием [ 3.97 GB ] Щелкунчик и четыре королевства / The Nutcracker and the Four Realms [2018 BDRip 720p] [Ukr DUB] killermax2013 Скачать
1 | 0
Фильмы 2018 [DVDrip, WEB-DLRip, HDrip] (DUB, MVO) [ 1.46 GB ] Щелкунчик и четыре королевства / The Nutcracker and the Four Realms [2018 BDRip] - [] Twi7ter Скачать
6 | 0
Ultra HD (UHD: 2K, 4K, 8K) — видео сверхвысокой чёткости [ 16.63 GB ] Щелкунчик и четыре королевства / The Nutcracker and the Four Realms [2018 UHD BDRip 2160p] DUB [ BD RUS] bober100 Скачать
3 | 0
Фильмы 2018 [DVDrip, WEB-DLRip, HDrip] (DUB, MVO) [ 2.14 GB ] Щелкунчик и четыре королевства / The Nutcracker and the Four Realms [2018 BDRip-AVC] DUB [] sheker187 Скачать
4 | 0
Фильмы [HD 720p, 1080p] (Хороший звук DUB, MVO) [ 7.72 GB ] Щелкунчик и четыре королевства / The Nutcracker and the Four Realms [2018 BDRip 1080p] DUB [] sheker187 Скачать
9 | 0
Фильмы 2018 [DVDrip, WEB-DLRip, HDrip] (DUB, MVO) [ 1.46 GB ] Щелкунчик и четыре королевства / The Nutcracker and the Four Realms [2018 BDRip ] oleg8 Скачать
4 | 0
Фильмы 2018 [DVDrip, WEB-DLRip, HDrip] (DUB, MVO) [ 745 MB ] Щелкунчик и четыре королевства / The Nutcracker and the Four Realms [2018 BDRip] bober100 Скачать
2 | 0


Последний раз редактировалось: sheker187 (2019-03-31 01:48), всего редактировалось 2 раз(а)

28-11-2019 20:33  

Отключить всю рекламу на сайте

31-03-2019 01:22 Щелкунчик и четыре королевства Скачать торрент  

Лицензия!pb.wtf



    Дорогой пользователь! Огромная просьба, поблагодарите релизера, оцените раздачу и оставьте свои комментарий, если Вы скачали Щелкунчик и четыре королевства через торрент бесплатно! Внесите свою лепту в развитие PiratBit!
    Комментировать посты могут только пользователи прошедшие не сложную регистрацию
    Показать сообщения:    

    Щелкунчик и четыре королевства через торрент
    Скачать бесплатно Щелкунчик и четыре королевства
    Щелкунчик и четыре королевства скачать торрент
    Щелкунчик и четыре королевства смотреть онлайн
    Cкачать фильм Щелкунчик и четыре королевства бесплатно
    Щелкунчик и четыре королевства скачать торрент в хорошем качестве
    Щелкунчик и четыре королевства смотреть онлайн бесплатно в хорошем качестве


    Вы не можете начинать темы
    Вы не можете отвечать на сообщения
    Вы не можете редактировать свои сообщения
    Вы не можете удалять свои сообщения
    Вы не можете голосовать в опросах
    Вы не можете прикреплять файлы к сообщениям
    Вы можете скачивать файлы