Ссылка на приватное зеркало всего за 1$. Внимание количество ограничено!!!

OK

1+1

iTunes

мы

OK

1

WEB-DLRip

Джокер

Пифагор

Ведьмак / The Witcher сериал

Лицензия

ПШазам

ОК

Оно 2

iTunes

30
pack

Вам бонус

ВАЖНО

!!Акция!!

Alien_RageХит недели

RePack

Resident Evil 21

ИГРА 18+

pack

RePack

jed

!!Акция!!

Alien_Rage

RePack

fifa19

RePack

Assassins Creed: Odyssey

RePack

NEED FOR SPEED™ PAYBACK

4 сезон

9 сезон

Бесстыжие 9 сезон

Все сериалы

все сериалы на PB.wtf

RePack

FAR CRY 5
  

Сила девяти Богов / The Legend of Muay Thai: 9 Satra (Понгса Корнсри, Гун Пхансувон, Нат Йосватананонт) [2018, мультфильм, боевик, приключения, фэнтези, WEB-DL 720p] DUB [Line] pb.wtf

Сила девяти Богов через торрент pb.wtf

Размер: 4.21 GB | Добавлен: 11 мес. назад | Торрент скачан:227 раз
Скачать  

04-02-2019 18:50 Сила девяти Богов Скачать торрент  

Сила девяти Богов / The Legend of Muay Thai: 9 Satra Год выпуска: 2018
Страна: Таиланд
Жанр: мультфильм, боевик, приключения, фэнтези
Продолжительность: 01:45:01
Перевод: Дублированный | Line
Субтитры: отсутствуют

Режиссер: Понгса Корнсри, Гун Пхансувон, Нат Йосватананонт

rating

В ролях:

Конокчат Манятон, Савитри Суттичанонд, Сиричай Чароенкиджтанкул, Рачипол Ямсаенг, Ворарит Фуангаромья, Нимит Луксамипонг, Дхамакара Джакраворавут, Контхорн Таечоларн, Сансерн Покесомбат, Суванди Джакраворавудх

Описание:

Непроглядная Тьма покрыла некогда процветающее царство Рамптеп. Но есть пророчество, что под созвездием Льва родится человек, который освободит свой народ от ига демонов. На острове Нок-Энн подрастает мальчик, которому предстоит постичь тайну магической силы Камня силы Девяти Богов и овладеть древним боевым искусством муай-тай. Теперь в его руках судьба царства.

Качество: WEB-DL 720p
Формат: MKV

Видео: h.264,5 350 Кбит/с, 1280x528
Аудио#1: Русский, (AC3, 2 ch, 384 Кбит/с)
скриншот  скриншот  скриншот  

Общее
Уникальный идентификатор : 204724413420726152064962708367742938810 (0x9A047CE1787B89CD9190AE53679D2EBA)
Полное имя : D:\The.Legend.of.Muay.Thai.9.Satra.2019.D.WEB_DL.72Op.mkv
Формат : Matroska
Версия формата : Version 2
Размер файла : 4,21 Гбайт
Продолжительность : 1 ч. 45 м.
Режим общего битрейта : Переменный
Общий поток : 5735 Кбит/сек
Дата кодирования : UTC 2019-02-04 02:01:20
Программа кодирования : mkvmerge v8.3.0 ('Over the Horizon') 64bit
Библиотека кодирования : libebml v1.3.1 + libmatroska v1.4.2

Видео
Идентификатор : 1
Формат : AVC
Формат/Информация : Advanced Video Codec
Профиль формата : High@L4.1
Параметр CABAC формата : Да
Параметр RefFrames формата : 4 кадра
Идентификатор кодека : V_MPEG4/ISO/AVC
Продолжительность : 1 ч. 45 м.
Вид битрейта : Переменный
Битрейт : 5350 Кбит/сек
Максимальный битрейт : 6000 Кбит/сек
Ширина : 1280 пикселей
Высота : 528 пикселей
Соотношение сторон : 2,40:1
Режим частоты кадров : Постоянный
Частота кадров : 23,976 (24000/1001) кадра/сек
Стандарт вещания : Component
Цветовое пространство : YUV
Субдискретизация насыщенности : 4:2:0
Битовая глубина : 8 бит
Тип развёртки : Прогрессивная
Бит/(Пиксели*Кадры) : 0.323
Размер потока : 3,84 Гбайт (91%)
Default : Да
Forced : Нет
Цветовой диапазон : Limited
Основные цвета : BT.709
Характеристики трансфера : BT.709
Коэффициенты матрицы : BT.709

Аудио
Идентификатор : 2
Формат : AC-3
Формат/Информация : Audio Coding 3
Расширение режима : CM (complete main)
Параметр Endianness формата : Big
Идентификатор кодека : A_AC3
Продолжительность : 1 ч. 45 м.
Вид битрейта : Постоянный
Битрейт : 384 Кбит/сек
Каналы : 2 канала
Расположение каналов : Front: L R
Частота : 48,0 КГц
Частота кадров : 31,250 кадров/сек (1536 spf)
Метод сжатия : С потерями
Размер потока : 288 Мбайт (7%)
Default : Да
Forced : Нет

pb.wtf



Скачать Сила девяти Богов через торрент https://b.radikal.ru/b30/1902/c9/bb8c2b457973.jpg Скачать фильм Сила девяти Богов через торрент бесплантно в хорошем качестве Описание: Непроглядная Тьма покрыла некогда процветающее царство Рамптеп. Но есть пророчество, что под созвездием Льва родится человек, ... 10 10 4
Торрент: Зарегистрирован [2019-02-04 18:50] · скачан: 227 раз
Статус: T временная
Размер: 4.21 GB
Как cкачать? Как скачать Сила девяти Богов через торрент | qTorrent

% Раздел Тема Автор DL S | L
T Фильмы (мультфильмы) cо спонсором показа (Новинки AVI/MKV) [ 1.37 GB ] Сила девяти Богов / The Legend of Muay Thai: 9 Satra [2018 мультфильм WEB-DLRip] DUB [Line] bober100 Скачать
1 | 0

28-11-2019 20:33  

Отключить всю рекламу на сайте

04-02-2019 20:50 Сила девяти Богов Скачать торрент  

Чё 8,0?? Вы там травы пережрали чтоль?pb.wtf



07-02-2019 09:57 Сила девяти Богов Скачать торрент  

Demon83666 писал(а):

Чё 8,0?? Вы там травы пережрали чтоль?

че так все печально??? дитятку стоит показывать мульТ? pb.wtf



    Дорогой пользователь! Огромная просьба, поблагодарите релизера, оцените раздачу и оставьте свои комментарий, если Вы скачали Сила девяти Богов через торрент бесплатно! Внесите свою лепту в развитие PiratBit!
    Комментировать посты могут только пользователи прошедшие не сложную регистрацию
    Показать сообщения:    

    Сила девяти Богов через торрент
    Скачать бесплатно Сила девяти Богов
    Сила девяти Богов скачать торрент
    Сила девяти Богов смотреть онлайн
    Cкачать фильм Сила девяти Богов бесплатно
    Сила девяти Богов скачать торрент в хорошем качестве
    Сила девяти Богов смотреть онлайн бесплатно в хорошем качестве


    Вы не можете начинать темы
    Вы не можете отвечать на сообщения
    Вы не можете редактировать свои сообщения
    Вы не можете удалять свои сообщения
    Вы не можете голосовать в опросах
    Вы не можете прикреплять файлы к сообщениям
    Вы можете скачивать файлы