Ссылка на приватное зеркало всего за 1$. Внимание количество ограничено!!!

OK

1+1

iTunes

мы

OK

1

WEB-DLRip

Джокер

Пифагор

Ведьмак / The Witcher сериал

iTunes

ПШазам

ОК

Оно 2

iTunes

30
pack

Вам бонус

ВАЖНО

!!Акция!!

Alien_RageХит недели

RePack

Resident Evil 21

ИГРА 18+

pack

RePack

jed

RePack

fifa19

RePack

Assassins Creed: Odyssey

RePack

NEED FOR SPEED™ PAYBACK

4 сезон

9 сезон

Бесстыжие 9 сезон

Все сериалы

все сериалы на PB.wtf

RePack

FAR CRY 5
  

Первое убийство / First Kill (Стивен С. Миллер) [2017, Боевик, триллер, BDRip 1080p] MVO [Официальный звук] pb.wtf

Первое убийство через торрент pb.wtf

Размер: 8.99 GB | Добавлен: 11 мес. назад | Торрент скачан:64 раза
Скачать  

04-02-2019 20:50 Первое убийство Скачать торрент  

Первое убийство / First Kill Год выпуска: 2017
Страна: США
Жанр: Боевик, триллер
Продолжительность: 01:42:47
Перевод: Профессиональный многоголосый | Официальный звук
Субтитры: отсутствуют

Режиссер: Стивен С. Миллер

rating

В ролях:

Брюс Уиллис, Хейден Кристенсен, Гетин Энтони, Маги Авила, Шарлотта Кирк, Уильям ДеМео, Тамара Белоус, Хезер, охансен, Тайлер Джон Олсон

Описание:

Фильм об опытном офицере, который расследует похищение мальчика, ставшего свидетелем разборки между банковскими грабителями. Вызволить ребенка так же торопится его молодой отец, вызывающий у полицейского серьезные подозрения — а не был ли он сам связан с этим ограблением?

Качество: BDRip 1080p
Формат: MKV

Видео: h.264,12.1 Mb/s, 1920x800
Аудио#1: Русский (AC3, 2 ch, 448 Кбит/с)
скриншот  скриншот  скриншот  

Общее
Уникальный идентификатор : 204282461657085177399837621130917896319 (0x99AF5EF9FA341B2084E25B9AFB34E07F)
Полное имя : D:\First.Kill.2O17.Pof.BDRip.1O8Op_KOSHARA.mkv
Формат : Matroska
Версия формата : Version 2
Размер файла : 8,99 Гбайт
Продолжительность : 1 ч. 42 м.
Режим общего битрейта : Переменный
Общий поток : 12,5 Мбит/сек
Дата кодирования : UTC 2019-02-04 12:18:13
Программа кодирования : mkvmerge v8.3.0 ('Over the Horizon') 64bit
Библиотека кодирования : libebml v1.3.1 + libmatroska v1.4.2

Видео
Идентификатор : 1
Формат : AVC
Формат/Информация : Advanced Video Codec
Профиль формата : High@L4.1
Параметр CABAC формата : Да
Параметр RefFrames формата : 4 кадра
Идентификатор кодека : V_MPEG4/ISO/AVC
Продолжительность : 1 ч. 42 м.
Вид битрейта : Переменный
Битрейт : 12,1 Мбит/сек
Максимальный битрейт : 14,0 Мбит/сек
Ширина : 1920 пикселей
Высота : 800 пикселей
Соотношение сторон : 2,40:1
Режим частоты кадров : Постоянный
Частота кадров : 23,976 (24000/1001) кадра/сек
Стандарт вещания : Component
Цветовое пространство : YUV
Субдискретизация насыщенности : 4:2:0
Битовая глубина : 8 бит
Тип развёртки : Прогрессивная
Бит/(Пиксели*Кадры) : 0.321
Размер потока : 8,49 Гбайт (94%)
Default : Да
Forced : Нет
Цветовой диапазон : Limited
Основные цвета : BT.709
Характеристики трансфера : BT.709
Коэффициенты матрицы : BT.709

Аудио
Идентификатор : 2
Формат : AC-3
Формат/Информация : Audio Coding 3
Расширение режима : CM (complete main)
Параметр Endianness формата : Big
Идентификатор кодека : A_AC3
Продолжительность : 1 ч. 42 м.
Вид битрейта : Постоянный
Битрейт : 448 Кбит/сек
Каналы : 2 канала
Расположение каналов : Front: L R
Частота : 48,0 КГц
Частота кадров : 31,250 кадров/сек (1536 spf)
Метод сжатия : С потерями
Размер потока : 329 Мбайт (4%)
Default : Да
Forced : Нет

pb.wtf



Скачать Первое убийство через торрент http://s019.radikal.ru/i620/1709/ce/6f8bef53418b.jpg Скачать фильм Первое убийство через торрент бесплантно в хорошем качестве Описание: Фильм об опытном офицере, который расследует похищение мальчика, ставшего свидетелем разборки между банковскими грабителями. ... 10 10 3
Торрент: Зарегистрирован [2019-02-04 20:50] · скачан: 64 раз
Статус: # сомнительно
Размер: 8.99 GB
Как cкачать? Как скачать Первое убийство через торрент | qTorrent

% Раздел Тема Автор DL S | L
# Фильмы (мультфильмы) cо спонсором показа (Новинки AVI/MKV) [ 5.04 GB ] Первое убийство / First Kill [2017 BDRip 720p] MVO [Официальный звук] bober100 Скачать
2 | 0
T Фильмы (мультфильмы) cо спонсором показа (Новинки AVI/MKV) [ 1.46 GB ] Первое убийство / First Kill [2017 HDRip] MVO [Официальный звук] bober100 Скачать
3 | 0
T Фильмы 2017 [DVDrip, WEB-DLRip, HDrip] (DUB, MVO) [ 1.81 GB ] Первое убийство / First Kill [2017 HDRip-AVC] MVO [Paradox&Omskbird] - ExKinoRay Enigma2010 Скачать
1 | 0
T Фильмы [HD 720p, 1080p] (Хороший звук DUB, MVO) [ 9.74 GB ] Первое убийство / First Kill [2017 BDRip 1080p] MVO [Paradox&Omskbird]+AVO [BadBajo] bober100 Скачать
1 | 0
T Фильмы 2017 [DVDrip, WEB-DLRip, HDrip] (DUB, MVO) [ 1.47 GB ] Первое убийство / First Kill [2017 BDRip] MVO [Paradox&Omskbird] Twi7ter Скачать
1 | 0
Фильмы с авторской озвучкой [ 1.95 GB ] Первое убийство / First Kill [2017 HDRip-AVC] AVO [BadBajo] - ExKinoRay Enigma2010 Скачать
1 | 0
Фильмы с авторской озвучкой [ 7.41 GB ] Первое убийство / First Kill [2017 WEB-DL 1080p] AVO [BadBajo] bober100 Скачать
1 | 0

28-11-2019 20:33  

Отключить всю рекламу на сайте

07-02-2019 09:54 Первое убийство Скачать торрент  

че это всего 5.2??? не стоит смотреть?? pb.wtf



    Дорогой пользователь! Огромная просьба, поблагодарите релизера, оцените раздачу и оставьте свои комментарий, если Вы скачали Первое убийство через торрент бесплатно! Внесите свою лепту в развитие PiratBit!
    Комментировать посты могут только пользователи прошедшие не сложную регистрацию
    Показать сообщения:    

    Первое убийство через торрент
    Скачать бесплатно Первое убийство
    Первое убийство скачать торрент
    Первое убийство смотреть онлайн
    Cкачать фильм Первое убийство бесплатно
    Первое убийство скачать торрент в хорошем качестве
    Первое убийство смотреть онлайн бесплатно в хорошем качестве


    Вы не можете начинать темы
    Вы не можете отвечать на сообщения
    Вы не можете редактировать свои сообщения
    Вы не можете удалять свои сообщения
    Вы не можете голосовать в опросах
    Вы не можете прикреплять файлы к сообщениям
    Вы можете скачивать файлы