Ссылка на приватное зеркало нашего сайта всего за 1$. Внимание количество ограничено!!!

2 сезон

iTunes

1 сезон

1

iTunes

iTunes

iTunes

1 сезон

RePack

30

ИГРА 18+

pack

ВАЖНО

!!Акция!!

Alien_RageХит недели

RePack

MK11
pack

Забери бонус

RePack

jed

!!Акция!!

Alien_Rage

RePack

fifa19

RePack

Assassins Creed: Odyssey

RePack

NEED FOR SPEED™ PAYBACK

4 сезон

9 сезон

Бесстыжие 9 сезон

Все сериалы

все сериалы на PB.wtf

RePack

FAR CRY 5
  

За витриной / Сезон: 1 / Серии: 1-16 из 16 (Мила Погребиская) [2019, Мелодрама, WEBRip 720p] pb.wtf

За витриной через торрент pb.wtf

Размер: 16.58 GB | Добавлен: 1 год 8 мес. назад | Торрент скачан:19 раз
Скачать  

05-02-2019 00:55 За витриной Скачать торрент  

За витриной Год выпуска: 2019
Страна: Украина
Жанр: Мелодрама
Продолжительность: ~ 00:47:00
Перевод: Не требуется
Субтитры: отсутствуют

Режиссер: Мила Погребиская



В ролях:

Сергей Басок, Елизавета Фалей, Ксения Мишина, Наталия Денисенко, Андрей Фединчик, Анна Лебедева, Ольга Радчук, Оксана Сташенко, Константин Данилюк, Дмитрий Чернов (II), Дмитрий Сарансков, Всеволод Шекита, Глеб Михайличенко, Вероника Братусина, Владимир Гончаров (III), Елена Светлицкая, Антонина Макарчук, Екатерина Вайвала

Описание:

Предприниматель Андрей Ветров владеет сетью модных магазинов в столице и по всей стране. Молодой красавец – жесткий бизнесмен, завидный жених и любимец роскошных женщин. Но ему не дает покоя бедная провинциалка Галя – незаметная продавщица, которая отчаянно пытается выбиться из нищеты и прокормить двух своих братьев...

Качество: WEBRip 720p
Формат: MKV

Видео: MPEG-4 AVC, ~ 3000 Кбит/с, 1280х720, 25 кадр/с
Аудио: AC3, 2 ch, 192 Кбит/с
скриншот  скриншот  скриншот  скриншот  

Общее
Уникальный идентификатор : 326801343586818615190598486596704949783 (0xF5DBA63BAB61159D889BD850D8065617)
Полное имя : E:\За витриной.(2018).WEBRip (720p).by.Nicodem.Files-x\01.За витриной.(2018).WEBRip (720p).by.Nicodem.Files-x.mkv
Формат : Matroska
Версия формата : Version 4 / Version 2
Размер файла : 1,05 Гбайт
Продолжительность : 46 м. 59 с.
Общий поток : 3185 Кбит/сек
Программа кодирования : Lavf56.36.100
Библиотека кодирования : Lavf56.36.100

Видео
Идентификатор : 1
Формат : AVC
Формат/Информация : Advanced Video Codec
Профиль формата : High@L3.1
Настройки формата : CABAC / 4 Ref Frames
Параметр CABAC формата : Да
Параметр RefFrames формата : 4 кадра
Идентификатор кодека : V_MPEG4/ISO/AVC
Продолжительность : 46 м. 59 с.
Битрейт : 3000 Кбит/сек
Ширина : 1280 пикселей
Высота : 720 пикселей
Соотношение сторон : 16:9
Режим частоты кадров : Постоянный
Частота кадров : 25,000 кадров/сек
Цветовое пространство : YUV
Субдискретизация насыщенности : 4:2:0
Битовая глубина : 8 бит
Тип развёртки : Прогрессивная
Бит/(Пиксели*Кадры) : 0.130
Размер потока : 985 Мбайт (92%)
Библиотека кодирования : x264 core 142 r2491 24e4fed
Настройки программы : cabac=1 / ref=3 / deblock=1:0:0 / analyse=0x3:0x113 / me=hex / subme=7 / psy=1 / psy_rd=1.00:0.00 / mixed_ref=1 / me_range=16 / chroma_me=1 / trellis=1 / 8x8dct=1 / cqm=0 / deadzone=21,11 / fast_pskip=1 / chroma_qp_offset=-2 / threads=16 / lookahead_threads=2 / sliced_threads=0 / nr=0 / decimate=1 / interlaced=0 / bluray_compat=0 / constrained_intra=0 / bframes=3 / b_pyramid=2 / b_adapt=1 / b_bias=0 / direct=1 / weightb=1 / open_gop=0 / weightp=2 / keyint=250 / keyint_min=25 / scenecut=40 / intra_refresh=0 / rc_lookahead=40 / rc=abr / mbtree=1 / bitrate=3000 / ratetol=1.0 / qcomp=0.60 / qpmin=0 / qpmax=69 / qpstep=4 / ip_ratio=1.40 / aq=1:1.00
Default : Да
Forced : Нет
Цветовой диапазон : Limited
Характеристики трансфера : BT.601
Коэффициенты матрицы : BT.601

Аудио
Идентификатор : 2
Формат : AC-3
Формат/Информация : Audio Coding 3
Идентификатор кодека : A_AC3
Продолжительность : 46 м. 59 с.
Вид битрейта : Постоянный
Битрейт : 192 Кбит/сек
Каналы : 2 канала
Расположение каналов : Front: L R
Частота : 48,0 КГц
Частота кадров : 31,250 кадров/сек (1536 SPF)
Битовая глубина : 16 бит
Метод сжатия : С потерями
Задержка видео : -80 мс.
Размер потока : 64,5 Мбайт (6%)
Язык : unknown
ServiceKind/String : Complete Main
Default : Да
Forced : Нет

Когда раздача ведётся путём добавления новых серий, при каждом добавлении создётся новый торрент. Чтобы начать докачку новой серии, пользователям необходимо сделать следующее:
(1) остановить скачивание,
(2) удалить старый торрент у себя из клиента (старые серии удалять не надо),
(3) скачать новый торрент и запустить его у себя в клиенте вместо старого, при этом указать клиенту путь в старую папку, куда и должно происходить скачивание новых серий.
Ваш клиент при этом должен произвести хеширование (проверку) старой папки (если не производит сам - помогите ему сделать это), и будет докачивать только те серии, которых у вас ещё нет. Старые серии при этом не удаляются, а продолжают раздаваться!
Eсли вы уже удалили старые серии, то предотвратить повторную закачку старых серий можно, отжав галочку в соответсвующих местах при запуске нового торрента. По возможности, желательно не удалять старые серии как можно дольше, чтобы релизёр не столько продолжал раздавать старые серии, а смог сконцентрироваться на новых.
pb.wtf



Скачать За витриной через торрент https://i106.fastpic.ru/big/2019/0127/d0/cbf95f88ee82674852d9028b55ca23d0.jpg Скачать фильм За витриной через торрент бесплантно в хорошем качестве Описание: Предприниматель Андрей Ветров владеет сетью модных магазинов в столице и по всей стране. Молодой красавец – жесткий бизнесмен, ... 10 10 3
Торрент: Зарегистрирован [2019-02-08 07:35] · скачан: 19 раз
Статус: √ проверено
Размер: 16.58 GB
Как cкачать? Как скачать За витриной через торрент | qTorrent

% Раздел Тема Автор DL S | L
Наши сериалы [ 9.49 GB ] За витриной / Сезон: 1 / Серии: 1-16 из 16 [2019 Мело WEBRip] bober100 Скачать
1 | 0

28-11-2019 20:33  

Отключить всю рекламу на сайте

    Дорогой пользователь! Огромная просьба, поблагодарите релизера, оцените раздачу и оставьте свои комментарий, если Вы скачали За витриной через торрент бесплатно! Внесите свою лепту в развитие PiratBit!
    Комментировать посты могут только пользователи прошедшие не сложную регистрацию
    Показать сообщения:    

    За витриной через торрент
    Скачать бесплатно За витриной
    За витриной скачать торрент
    За витриной смотреть онлайн
    Cкачать фильм За витриной бесплатно
    За витриной скачать торрент в хорошем качестве
    За витриной смотреть онлайн бесплатно в хорошем качестве


    Вы не можете начинать темы
    Вы не можете отвечать на сообщения
    Вы не можете редактировать свои сообщения
    Вы не можете удалять свои сообщения
    Вы не можете голосовать в опросах
    Вы не можете прикреплять файлы к сообщениям
    Вы можете скачивать файлы