Ссылка на приватное зеркало всего за 1$. Внимание количество ограничено!!!

OK

1+1

iTunes

мы

OK

1

WEB-DLRip

Джокер

Пифагор

Ведьмак / The Witcher сериал

Лицензия

ПШазам

ОК

Оно 2

iTunes

30
pack

Вам бонус

ВАЖНО

!!Акция!!

Alien_RageХит недели

RePack

Resident Evil 21

ИГРА 18+

pack

RePack

jed

!!Акция!!

Alien_Rage

RePack

fifa19

RePack

Assassins Creed: Odyssey

RePack

NEED FOR SPEED™ PAYBACK

4 сезон

9 сезон

Бесстыжие 9 сезон

Все сериалы

все сериалы на PB.wtf

RePack

FAR CRY 5
  

Звезда родилась / A Star Is Born (Брэдли Купер) [2018, мелодрама, музыка, UHD BDRemux 2160p] DUB [Лицензия] pb.wtf

Звезда родилась через торрент pb.wtf

Размер: 49.51 GB | Добавлен: 11 мес. назад | Торрент скачан:40 раз
Скачать  

05-02-2019 02:30 Звезда родилась Скачать торрент  

Звезда родилась / A Star Is Born

Год выпуска: 2018
Страна: США
Жанр: мелодрама, музыка
Продолжительность: 02:15:35
Перевод: Дублированный [Лицензия]
Субтитры: Русские (Форсированные, полные), Английские (Полные)
Режиссер: Брэдли Купер
В ролях:

Леди Гага (Ally), Брэдли Купер (Jack), Сэм Эллиотт (Bobby), Эндрю Дайс Клэй (Lorenzo), Рафи Гаврон (Rez Gavron), Энтони Рамос (Ramon), Дэйв Шаппелл (George «Noodles» Stone), Алек Болдуин (Alec Baldwin), Марлон Уильямс (Marlon Williams), Брэнди Карлайл (Brandi Carlile), Рон Рифкин (Carl), Бэрри Шебака Хенли (Little Feet)
Описание:
Кантри-музыкант Джексон Мейн, чья карьера быстро катится под откос, однажды знакомится с никому не известной талантливой певицей Элли. Между героями вспыхивает страстный роман. Джек помогает Элли добиться успеха. Но чем стремительнее набирает обороты музыкальная карьера Элли, тем сложнее ему мириться со своей увядающей славой.
Рейтинг:

MPAA: R - Лицам до 17 лет обязательно присутствие взрослого
Качество: UHD BDRemux 2160p
Формат: MKV
Видео: HEVC HDR, 43.5 Мбит/с, 3840x2160, 23.976 Кадр/с, 10 бит
Аудио №1: Russian / Dolby Digital Audio / 5.1 / 48 kHz / 448 kbps Полное дублирование BluRay
Аудио №2: English / Dolby TrueHD with Dolby Atmos / 7.1 / 48 kHz / 3597 kbps
Аудио №3: English / DTS-HD Master Audio / 7.1 / 48 kHz / 4147 kbps
Аудио №4: English / Dolby Digital Audio / 5.1 / 48 kHz / 448 kbps
Навигация по главам: Есть

General
Unique ID : 106481659077607531972255908348263203792 (0x501B9F1F82A60EE186C125050DD903D0)
Complete name : X:\Releases\A.Star.Is.Born.2018.BluRay.REMUX.HEVC.HDR.2160p.mkv
Format : Matroska
Format version : Version 4
File size : 49.5 GiB
Duration : 2 h 15 min
Overall bit rate mode : Variable
Overall bit rate : 52.2 Mb/s
Encoded date : UTC 2019-02-04 16:41:32
Writing application : mkvmerge v30.1.0 ('Forever And More') 64-bit
Writing library : libebml v1.3.6 + libmatroska v1.4.9
Attachments : poster.jpg

Video
ID : 1
Format : HEVC
Format/Info : High Efficiency Video Coding
Commercial name : HDR10
Format profile : Main 10@L5.1@High
Codec ID : V_MPEGH/ISO/HEVC
Duration : 2 h 15 min
Bit rate : 43.5 Mb/s
Width : 3 840 pixels
Height : 2 160 pixels
Display aspect ratio : 16:9
Frame rate mode : Constant
Frame rate : 23.976 (24000/1001) FPS
Color space : YUV
Chroma subsampling : 4:2:0 (Type 2)
Bit depth : 10 bits
Bits/(Pixel*Frame) : 0.219
Stream size : 41.2 GiB (83%)
Default : Yes
Forced : No
Color range : Limited
Color primaries : BT.2020
Transfer characteristics : PQ
Matrix coefficients : BT.2020 non-constant
Mastering display color pri : Display P3
Mastering display luminance : min: 0.0050 cd/m2, max: 4000 cd/m2
Maximum Content Light Level : 671 cd/m2
Maximum Frame-Average Light : 310 cd/m2

Audio #1
ID : 2
Format : AC-3
Format/Info : Audio Coding 3
Commercial name : Dolby Digital
Codec ID : A_AC3
Duration : 2 h 15 min
Bit rate mode : Constant
Bit rate : 448 kb/s
Channel(s) : 6 channels
Channel layout : L R C LFE Ls Rs
Sampling rate : 48.0 kHz
Frame rate : 31.250 FPS (1536 SPF)
Bit depth : 16 bits
Compression mode : Lossy
Delay relative to video : 23 ms
Stream size : 435 MiB (1%)
Title : Дубляж BluRay EUR
Language : Russian
Service kind : Complete Main
Default : Yes
Forced : No

Audio #2
ID : 3
Format : MLP FBA 16-ch
Format/Info : Meridian Lossless Packing FBA with 16-channel presentation
Commercial name : Dolby TrueHD with Dolby Atmos
Codec ID : A_TRUEHD
Duration : 2 h 15 min
Bit rate mode : Variable
Bit rate : 3 597 kb/s
Maximum bit rate : 5 472 kb/s
Channel(s) : 8 channels
Channel layout : L R C LFE Ls Rs Lb Rb
Sampling rate : 48.0 kHz
Frame rate : 1 200.000 FPS (40 SPF)
Compression mode : Lossless
Stream size : 3.41 GiB (7%)
Language : English
Default : No
Forced : No
Number of dynamic objects : 15
Bed channel count : 1 channel
Bed channel configuration : LFE

Audio #3
ID : 4
Format : DTS XLL
Format/Info : Digital Theater Systems
Commercial name : DTS-HD Master Audio
Codec ID : A_DTS
Duration : 2 h 15 min
Bit rate mode : Variable
Bit rate : 4 147 kb/s
Channel(s) : 8 channels
Channel layout : C L R LFE Lb Rb Lss Rss
Sampling rate : 48.0 kHz
Frame rate : 93.750 FPS (512 SPF)
Bit depth : 24 bits
Compression mode : Lossless
Delay relative to video : -9 ms
Stream size : 3.93 GiB (8%)
Language : English
Default : No
Forced : No

Audio #4
ID : 5
Format : AC-3
Format/Info : Audio Coding 3
Commercial name : Dolby Digital
Codec ID : A_AC3
Duration : 2 h 15 min
Bit rate mode : Constant
Bit rate : 448 kb/s
Channel(s) : 6 channels
Channel layout : L R C LFE Ls Rs
Sampling rate : 48.0 kHz
Frame rate : 31.250 FPS (1536 SPF)
Bit depth : 16 bits
Compression mode : Lossy
Stream size : 435 MiB (1%)
Language : English
Service kind : Complete Main
Default : No
Forced : No

Text #1
ID : 6
Format : UTF-8
Codec ID : S_TEXT/UTF8
Codec ID/Info : UTF-8 Plain Text
Duration : 2 h 14 min
Bit rate : 10 b/s
Count of elements : 191
Stream size : 10.0 KiB (0%)
Title : Форсированные
Language : Russian
Default : Yes
Forced : No

Text #2
ID : 7
Format : UTF-8
Codec ID : S_TEXT/UTF8
Codec ID/Info : UTF-8 Plain Text
Duration : 2 h 14 min
Bit rate : 95 b/s
Count of elements : 1563
Stream size : 94.6 KiB (0%)
Title : Полные
Language : Russian
Default : No
Forced : No

Text #3
ID : 8
Format : UTF-8
Codec ID : S_TEXT/UTF8
Codec ID/Info : UTF-8 Plain Text
Duration : 2 h 14 min
Bit rate : 70 b/s
Count of elements : 2151
Stream size : 69.3 KiB (0%)
Language : English
Default : No
Forced : No

Menu
00:00:00.000 : :Chapter 1
00:08:03.316 : :Chapter 2
00:15:25.674 : :Chapter 3
00:20:26.099 : :Chapter 4
00:29:59.839 : :Chapter 5
00:36:07.832 : :Chapter 6
00:38:33.519 : :Chapter 7
00:49:23.669 : :Chapter 8
00:54:12.290 : :Chapter 9
00:56:41.648 : :Chapter 10
01:07:03.644 : :Chapter 11
01:15:37.533 : :Chapter 12
01:21:02.357 : :Chapter 13
01:24:22.015 : :Chapter 14
01:34:38.297 : :Chapter 15
01:43:44.801 : :Chapter 16
01:50:53.063 : :Chapter 17
02:01:20.606 : :Chapter 18
02:05:20.429 : :Chapter 19
pb.wtf



Скачать Звезда родилась через торрент https://a.radikal.ru/a11/1901/7c/738932bf782f.jpg Скачать фильм Звезда родилась через торрент бесплантно в хорошем качестве Описание: Кантри-музыкант Джексон Мейн, чья карьера быстро катится под откос, однажды знакомится с никому не известной талантливой певицей ... 10 10 1
Торрент: Зарегистрирован [2019-02-05 02:30] · скачан: 40 раз
Статус: √ проверено
Размер: 49.51 GB
Как cкачать? Как скачать Звезда родилась через торрент | qTorrent

% Раздел Тема Автор DL S | L
Ultra HD (UHD: 2K, 4K, 8K) — видео сверхвысокой чёткости [ 43.66 GB ] Звезда родилась / A Star Is Born [2018 музыка UHD BDRemux 2160p] DUB [] [Dolby Vision TV] sheker187 Скачать
1 | 0
Фильмы [HD 720p, 1080p] (Хороший звук DUB, MVO) [ 2.8 GB ] Звезда родилась / A Star Is Born [2018 Мело музыка BDRip 1080p HEVC ()] Мичман37 Скачать
6 | 0
Ultra HD (UHD: 2K, 4K, 8K) — видео сверхвысокой чёткости [ 22.12 GB ] Звезда родилась / A Star Is Born [2018 музыка UHD BDRip 2160p] DUB [] sheker187 Скачать
2 | 0
Ultra HD (UHD: 2K, 4K, 8K) — видео сверхвысокой чёткости [ 57.91 GB ] Звезда родилась / A Star Is Born [2018 музыка UHD Blu-ray EUR 2160p] DUB [] [Dolby Vision] sheker187 Скачать
1 | 0
Фильмы [HD 720p, 1080p] (Хороший звук DUB, MVO) [ 4.44 GB ] Звезда родилась / A Star Is Born [2018 музыка BDRip-HEVC 1080p ] DUB [] bober100 Скачать
3 | 1
Фильмы 2018 [DVDrip, WEB-DLRip, HDrip] (DUB, MVO) [ 2.18 GB ] Звезда родилась / A Star Is Born [2018 музыка BDRip] - [] Twi7ter Скачать
5 | 0
Фильмы 2018 [DVDrip, WEB-DLRip, HDrip] (DUB, MVO) [ 1.46 GB ] Звезда родилась / A Star Is Born [2018 музыка BDRip] - [] Twi7ter Скачать
3 | 0

28-11-2019 20:33  

Отключить всю рекламу на сайте

    Дорогой пользователь! Огромная просьба, поблагодарите релизера, оцените раздачу и оставьте свои комментарий, если Вы скачали Звезда родилась через торрент бесплатно! Внесите свою лепту в развитие PiratBit!
    Комментировать посты могут только пользователи прошедшие не сложную регистрацию
    Показать сообщения:    

    Звезда родилась через торрент
    Скачать бесплатно Звезда родилась
    Звезда родилась скачать торрент
    Звезда родилась смотреть онлайн
    Cкачать фильм Звезда родилась бесплатно
    Звезда родилась скачать торрент в хорошем качестве
    Звезда родилась смотреть онлайн бесплатно в хорошем качестве


    Вы не можете начинать темы
    Вы не можете отвечать на сообщения
    Вы не можете редактировать свои сообщения
    Вы не можете удалять свои сообщения
    Вы не можете голосовать в опросах
    Вы не можете прикреплять файлы к сообщениям
    Вы можете скачивать файлы