новый адрес
Ссылка на приватное зеркало всего за 1$. Внимание количество ограничено!!!

iTunes

1+1

iTunes

мы

WEB-DL

1

iTunes

Чернобыль

iTunes

Ральф против интернета

Лицензия

ПШазам

Лицензия

Оно 2

Лицензия

30
pack

Вам бонус

ВАЖНО

!!Акция!!

Alien_RageХит недели

RePack

Resident Evil 21

ИГРА 18+

pack

RePack

jed

!!Акция!!

Alien_Rage

RePack

fifa19

RePack

Assassins Creed: Odyssey

RePack

NEED FOR SPEED™ PAYBACK

3 сезон

9 сезон

Бесстыжие 9 сезон

Все сериалы

все сериалы на PB.wtf

RePack

FAR CRY 5
Ребята, катастрофически не хватает 1900р. для оплаты серверов за Октябрь (всвязи с блокировками трафик упал в 3 раза), 1-2р., выручайте.
  

Cycпиpия / Susріrіа (Лука Гуаданьино) [2018, ужасы, фэнтези, триллер, детектив, BDRip] DUB [iTunes] pb.wtf

Cycпиpия через торрент pb.wtf

Раздают: 1 [ 0 KB/s ]
Размер: 1.46 GB | Добавлен: 10 мес. назад | Торрент скачан:302 раза
Скачать  

05-02-2019 03:56 Cycпиpия Скачать торрент  

Cycпиpия / Susріrіа Год выпуска: 2018
Страна: Италия, США
Жанр: ужасы, фэнтези, триллер, детектив
Продолжительность: 02:32:10
Перевод: Дублированный | iTunes
Субтитры: английские (хардсаб на немецкую речь)

Режиссер: Лука Гуаданьино

rating

В ролях:

Дакота Джонсон, Тильда Суинтон, Дорис Хик, Малгоша Бела, Хлоя Грейс Морец, Ангела Винклер, Ванда Каприоло, Алек Век, Джессика Батю, Елена Фокина

Описание:

Молодая американка приезжает в Берлин, чтобы присоединиться к знаменитой танцевальной труппе. Однако в стенах студии девушка внезапно обнаруживает нечто зловещее и сверхъестественное. Вскоре она понимает, что станет следующей жертвой, если не успеет раскрыть тайну проклятия, которое окутало легендарную танцевальную академию...

Качество: BDRip
Формат: AVI

Видео: Xvid 73, 704x384, ~1168 kbps, 24,000 fps
Аудио: русский, AC3, 2.0 ch, 48 kHz, 192 kbps | iTunes
скриншот  скриншот  скриншот  скриншот  

General
Полное имя : E:TorrentSuspiria2018BDRip.avi
Формат : AVI
Формат/Информация : Audio Video Interleave
Профиль формата : OpenDML
Размер файла : 1.46 GiB
Продолжительность : 2 h 32 min
Общий поток : 1 372 kb/s
Программа кодирования : XviD4PSP 6.0 / 54.27.101

Video
Идентификатор : 0
Формат : MPEG-4 Visual
Профиль формата : Advanced Simple@L5
Настройки формата : BVOP2 / Custom Matrix
Параметр BVOP формата : 2
Параметр QPel формата : No
Параметр GMC формата : No warppoints
Параметр матрицы формата : Custom
Идентификатор кодека : XVID
Идентификатор кодека/Подсказка : XviD
Продолжительность : 2 h 32 min
Битрейт : 1 168 kb/s
Ширина : 704 pixels
Высота : 384 pixels
Соотношение сторон : 1.85:1
Частота кадров : 24.000 FPS
Цветовое пространство : YUV
Субдискретизация насыщенности : 4:2:0
Битовая глубина : 8 bits
Тип развёртки : Progressive
Метод сжатия : Lossy
Бит/(Пиксели*Кадры) : 0.180
Размер потока : 1.24 GiB (85%)
Библиотека кодирования : XviD 73

Audio
Идентификатор : 1
Формат : AC-3
Формат/Информация : Audio Coding 3
Идентификатор кодека : 2000
Продолжительность : 2 h 32 min
Вид битрейта : Constant
Битрейт : 192 kb/s
Каналы : 2 channels
Расположение каналов : Front: L R
Частота : 48.0 kHz
Частота кадров : 31.250 FPS (1536 SPF)
Битовая глубина : 16 bits
Метод сжатия : Lossy
Размер потока : 209 MiB (14%)
Выравнивание : Aligned on interleaves
Продолжительность промежутка : 32 ms (0.77 video frame)

pb.wtf



Скачать Cycпиpия через торрент https://i84.fastpic.ru/big/2019/0205/bc/10c7351fb59cb493dcba2ae577b3dabc.jpg Скачать фильм Cycпиpия через торрент бесплантно в хорошем качестве Описание: Молодая американка приезжает в Берлин, чтобы присоединиться к знаменитой танцевальной труппе. Однако в стенах студии девушка ... 8.3 10 6
Info! Золотая раздача, скачанное не засчитывается.
Торрент: Зарегистрирован [2019-02-05 03:56] · скачан: 302 раз
Статус: √ проверено
Размер: 1.46 GB
Как cкачать? Как скачать Cycпиpия через торрент | qTorrent

% Раздел Тема Автор DL S | L
Ultra HD (UHD: 2K, 4K, 8K) — видео сверхвысокой чёткости [ 53.38 GB ] Cycпиpия / Susріrіа [1977 UHD BDRemux 2160p] [SDR] MVO [Селена Интернешенел] + 5xAVO DSIO Скачать
2 | 0
Ultra HD (UHD: 2K, 4K, 8K) — видео сверхвысокой чёткости [ 26.12 GB ] Cycпиpия / Susріrіа [1977 UHD BDRip 2160p] [SDR] MVO [Селена Интернешенел] + 5xAVO DSIO Скачать
2 | 0

28-11-2019 20:33  

Отключить всю рекламу на сайте


    Дорогой пользователь! Огромная просьба, поблагодарите релизера, оцените раздачу и оставьте свои комментарий, если Вы скачали Cycпиpия через торрент бесплатно! Внесите свою лепту в развитие PiratBit!
    Комментировать посты могут только пользователи прошедшие не сложную регистрацию
    Показать сообщения:    

    Cycпиpия через торрент
    Скачать бесплатно Cycпиpия
    Cycпиpия скачать торрент
    Cycпиpия смотреть онлайн
    Cкачать фильм Cycпиpия бесплатно
    Cycпиpия скачать торрент в хорошем качестве
    Cycпиpия смотреть онлайн бесплатно в хорошем качестве


    Вы не можете начинать темы
    Вы не можете отвечать на сообщения
    Вы не можете редактировать свои сообщения
    Вы не можете удалять свои сообщения
    Вы не можете голосовать в опросах
    Вы не можете прикреплять файлы к сообщениям
    Вы можете скачивать файлы