Marvel's Avengers Deluxe Edition (супер цена) 159р. Внимание количество ограничено!!!

2 сезон

iTunes

iTunes

1

iTunes

iTunes

iTunes

WEBRip

iTunes

30
pack

Новость дня

ВАЖНО

!!Акция!!

Alien_RageХит недели

RePack

Horizon Zero Dawn

ИГРА 18+

pack

RePack

jed

!!Акция!!

Alien_Rage

RePack

fifa19

RePack

Assassins Creed: Odyssey

RePack

NEED FOR SPEED™ PAYBACK

4 сезон

9 сезон

Бесстыжие 9 сезон

Все сериалы

все сериалы на PB.wtf

RePack

FAR CRY 5
  

Вооружённый ответ / Armed Response (Джон Стокуэлл) [2017, Ужасы, триллер, боевик, BDRip 720p] MVO [iTunes] pb.wtf

Вооружённый ответ через торрент pb.wtf

Раздают: 1 [ 0 KB/s ]
Размер: 3.41 GB | Добавлен: 2 мес. 18 д. назад | Торрент скачан:31 раз
Скачать  

05-02-2019 06:11 Вооружённый ответ Скачать торрент  

Вооружённый ответ | Armed Response
Год выпуска: 2017
Страна: США
Выпущено: Erebus Pictures, Maandi Films, Saban Films, WWE Studios
Жанр: Ужасы, триллер, боевик
Продолжительность: 01:33:52
Перевод: Профессиональный многоголосый | iTunes
Субтитры: Английские

Режиссер: Джон Стокуэлл

rating

В ролях: Уэсли Снайпс, Энн Хеч, Дэйв Эннэйбл, Колби Лопес, Кайл Расселл Клементс, Морган Робертс, Эйас Юнис, Мэтт Галлини, Майкл Сил, Джон Л. Армихо

Описание: Команда оперативников оказывается в ловушке внутри воинской части. Без того удушающую атмосферу накаляет тот факт, что в этом самом здании уже погибла команда их предшественников.

Качество: BDRip 720p
Формат: MKV

Видео: MPEG-4 AVC, 4350 Kb/s, 1280x694
Аудио #1 Russian: 48 kHz, AC3 Dolby Digital, 2/0 (L, R) ch, ~192 Kbps | iTunes
Аудио #2 English: 48 kHz, AC3 Dolby Digital, 3/2 (L, C, R, l, r) + LFE ch, ~640 Kbps | Original
скриншот  скриншот  скриншот  скриншот  

Complete name: D:\Vooruzhennyiy.otvet.2017.720p.BluRay.ELEKTRI4KA.UNIONGANG.mkv
Format: Matroska
Format version: Version 4 / Version 2
File size: 3.41 GiB
Duration: 1 h 33 min
Overall bit rate: 5 195 kb/s
Movie name: .ELEKTRI4KA.UNIONGANG.
Encoded date: UTC 2020-06-30 13:19:32
Writing application: mkvmerge v8.3.0 ('Over the Horizon') 64bit
Writing library: libebml v1.3.1 + libmatroska v1.4.2

Video
ID: 1
Format: AVC
Format/Info: Advanced Video Codec
Format profile: High@L4.1
Format settings, CABAC: Yes
Format settings, Reference frames: 12 frames
Codec ID: V_MPEG4/ISO/AVC
Duration: 1 h 33 min
Bit rate: 4 350 kb/s
Width: 1 280 pixels
Height: 694 pixels
Display aspect ratio: 1.85:1
Frame rate mode: Constant
Frame rate: 23.976 (24000/1001) FPS
Color space: YUV
Chroma subsampling: 4:2:0
Bit depth: 8 bits
Scan type: Progressive
Bits/(Pixel*Frame): 0.204
Stream size: 2.85 GiB (84%)
Title: .ELEKTRI4KA.UNIONGANG.
Writing library: x264 core 148 r2692+46 0f71ed5 7mod [8-bit@all X86_64]
Encoding settings: cabac=1 / ref=12 / deblock=1:-3:-3 / analyse=0x3:0x113 / me=umh / subme=11 / psy=1 / fade_compensate=0.00 / psy_rd=1.00:0.00 / mixed_ref=1 / me_range=32 / chroma_me=1 / trellis=2 / 8x8dct=1 / cqm=0 / deadzone=11, 6 / fast_pskip=0 / chroma_qp_offset=-2 / threads=22 / lookahead_threads=3 / sliced_threads=0 / nr=0 / decimate=0 / interlaced=0 / bluray_compat=0 / constrained_intra=0 / fgo=0 / bframes=8 / b_pyramid=2 / b_adapt=2 / b_bias=0 / direct=3 / weightb=1 / open_gop=0 / weightp=2 / keyint=250 / keyint_min=23 / scenecut=40 / intra_refresh=0 / rc_lookahead=60 / rc=crf / mbtree=0 / crf=17.0000 / qcomp=0.60 / qpmin=0:0:0 / qpmax=32:32:32 / qpstep=4 / vbv_maxrate=40000 / vbv_bufsize=30000 / crf_max=0.0 / nal_hrd=none / filler=0 / ip_ratio=1.30 / pb_ratio=1.20 / aq=4:0.80 / aq-sensitivity=10.00 / aq-factor=1.00:1.00:1.00 / aq2=0 / aq3=0
Language: English
Default: Yes
Forced: No
Color range: Limited
Color primaries: BT.709
Transfer characteristics: BT.709
Matrix coefficients: BT.709

Audio #1
ID: 2
Format: AC-3
Format/Info: Audio Coding 3
Mode extension: CM (complete main)
Format settings, Endianness: Big
Codec ID: A_AC3
Duration: 1 h 33 min
Bit rate mode: Constant
Bit rate: 192 kb/s
Channel(s): 2 channels
Channel positions: Front: L R
Sampling rate: 48.0 kHz
Frame rate: 31.250 FPS (1536 spf)
Bit depth: 16 bits
Compression mode: Lossy
Stream size: 129 MiB (4%)
Title: iTunes
Language: Russian
Default: Yes
Forced: No

Audio #2
ID: 3
Format: AC-3
Format/Info: Audio Coding 3
Mode extension: CM (complete main)
Format settings, Endianness: Big
Codec ID: A_AC3
Duration: 1 h 33 min
Bit rate mode: Constant
Bit rate: 640 kb/s
Channel(s): 6 channels
Channel positions: Front: L C R, Side: L R, LFE
Sampling rate: 48.0 kHz
Frame rate: 31.250 FPS (1536 spf)
Bit depth: 16 bits
Compression mode: Lossy
Stream size: 430 MiB (12%)
Language: English
Default: No
Forced: No

Text
ID: 4
Format: PGS
Muxing mode: zlib
Codec ID: S_HDMV/PGS
Codec ID/Info: Picture based subtitle format used on BDs/HD-DVDs
Duration: 1 h 28 min
Bit rate: 11.0 kb/s
Count of elements: 2236
Stream size: 6.94 MiB (0%)
Language: English
Default: Yes
Forced: No

Menu
00:00:00.000: en:00:00:00.000
00:07:37.916: en:00:07:37.916
00:12:55.024: en:00:12:55.024
00:17:50.528: en:00:17:50.528
00:23:24.903: en:00:23:24.903
00:30:37.961: en:00:30:37.961
00:34:48.295: en:00:34:48.295
00:41:14.806: en:00:41:14.806
00:45:35.900: en:00:45:35.900
00:51:25.541: en:00:51:25.541
00:56:45.861: en:00:56:45.861
01:02:47.263: en:01:02:47.263
01:10:40.987: en:01:10:40.987
01:16:32.713: en:01:16:32.713
01:21:38.602: en:01:21:38.602
01:29:49.384: en:01:29:49.384

pb.wtf



Скачать Вооружённый ответ через торрент https://i4.imageban.ru/out/2020/06/30/728dd6a4d22e64b6980cf9f17a816b8a.png Скачать фильм Вооружённый ответ через торрент бесплантно в хорошем качестве Описание: Команда оперативников оказывается в ловушке внутри воинской части. Без того удушающую атмосферу накаляет тот факт, что в этом ... 8.2 10 5
Торрент: Зарегистрирован [2020-06-30 18:10] · скачан: 31 раз
Статус: √ проверено
Размер: 3.41 GB
Как cкачать? Как скачать Вооружённый ответ через торрент | qTorrent

% Раздел Тема Автор DL S | L
Фильмы 2017 [DVDrip, WEB-DLRip, HDrip] (DUB, MVO) [ 742 MB ] Вооружённый ответ / Armed Response [2017 BDRip-AVC] [MVO] Lithuania Скачать
2 | 0
Фильмы 2017 [DVDrip, WEB-DLRip, HDrip] (DUB, MVO) [ 1.46 GB ] Вооружённый ответ / Armed Response [2017 BDRip] MVO Twi7ter Скачать
13 | 0
Фильмы 2017 [DVDrip, WEB-DLRip, HDrip] (DUB, MVO) [ 745 MB ] Вооружённый ответ / Armed Response [2017 HDRip] MVO bober100 Скачать
1 | 0
Фильмы [HD 720p, 1080p] (Хороший звук DUB, MVO) [ 8.41 GB ] Вооружённый ответ / Armed Response [2017 BDRip 1080p] MVO bober100 Скачать
3 | 0
Фильмы 2017 [DVDrip, WEB-DLRip, HDrip] (DUB, MVO) [ 1.45 GB ] Вооружённый ответ / Armed Response [2017 HDRip] MVO bober100 Скачать
3 | 0


Последний раз редактировалось: bober100 (2020-06-30 18:10), всего редактировалось 1 раз

28-11-2019 20:33  

Отключить всю рекламу на сайте

    Дорогой пользователь! Огромная просьба, поблагодарите релизера, оцените раздачу и оставьте свои комментарий, если Вы скачали Вооружённый ответ через торрент бесплатно! Внесите свою лепту в развитие PiratBit!
    Комментировать посты могут только пользователи прошедшие не сложную регистрацию
    Показать сообщения:    

    Вооружённый ответ через торрент
    Скачать бесплатно Вооружённый ответ
    Вооружённый ответ скачать торрент
    Вооружённый ответ смотреть онлайн
    Cкачать фильм Вооружённый ответ бесплатно
    Вооружённый ответ скачать торрент в хорошем качестве
    Вооружённый ответ смотреть онлайн бесплатно в хорошем качестве


    Вы не можете начинать темы
    Вы не можете отвечать на сообщения
    Вы не можете редактировать свои сообщения
    Вы не можете удалять свои сообщения
    Вы не можете голосовать в опросах
    Вы не можете прикреплять файлы к сообщениям
    Вы можете скачивать файлы