Ссылка на приватное зеркало всего за 1$. Внимание количество ограничено!!!

OK

1+1

iTunes

мы

OK

1

WEB-DLRip

Джокер

Пифагор

Ведьмак / The Witcher сериал

iTunes

ПШазам

ОК

Оно 2

iTunes

30
pack

Вам бонус

ВАЖНО

!!Акция!!

Alien_RageХит недели

RePack

Resident Evil 21

ИГРА 18+

pack

RePack

jed

RePack

fifa19

RePack

Assassins Creed: Odyssey

RePack

NEED FOR SPEED™ PAYBACK

4 сезон

9 сезон

Бесстыжие 9 сезон

Все сериалы

все сериалы на PB.wtf

RePack

FAR CRY 5
  

Агата и правда об убийстве / Agatha and the Truth of Murder (Терри Лоан) [2018, криминал, WEB-DL 720p] MVO [@MUZOBOZ@] pb.wtf

Агата и правда об убийстве через торрент pb.wtf

Размер: 3.69 GB | Добавлен: 11 мес. назад | Торрент скачан:51 раз
Скачать  

05-02-2019 06:29 Агата и правда об убийстве Скачать торрент  

Агата и правда об убийстве / Agatha and the Truth of Murder Год выпуска: 2018
Страна: Великобритания
Жанр: криминал
Продолжительность: 01:33:27
Перевод: Любительский (многоголосый) | @MUZOBOZ@
Субтитры: отсутствуют

Режиссер: Терри Лоан

rating

В ролях:

Ралф Айнесон, Рут Брэдли, Тим МакИннерни, Блейк Харрисон, Пиппа Хэйвуд, Майкл МакЭлхаттон, Бебе Кейв, Брайан МакКарди, Дин Эндрюс, Саманта Спиро

Описание:

1926 год. Столкнувшись с неприятностями в личной жизни и творческим кризисом, молодая Агата Кристи решает расследовать настоящее убийство.

Качество: WEB-DL 720p
Формат: MKV

Видео: h.264, 5 261 kb/s, 1280x640
Аудио#1: Русский, (AC3, 2 ch, 384 Кбит/с)
скриншот  скриншот  скриншот  

Общее
Уникальный идентификатор : 204799344904015008743742585412458967423 (0x9A12EB49C121EBF5AA0E53D5043CF17F)
Полное имя : D:\Agatha.and.the.Truth.of.Murder.2018.P.WEB-DL.72Op_KOSHARA.mkv
Формат : Matroska
Версия формата : Version 2
Размер файла : 3,69 Гбайт
Продолжительность : 1 ч. 33 м.
Режим общего битрейта : Переменный
Общий поток : 5647 Кбит/сек
Дата кодирования : UTC 2019-02-01 10:32:48
Программа кодирования : mkvmerge v8.3.0 ('Over the Horizon') 64bit
Библиотека кодирования : libebml v1.3.1 + libmatroska v1.4.2

Видео
Идентификатор : 1
Формат : AVC
Формат/Информация : Advanced Video Codec
Профиль формата : High@L4.1
Параметр CABAC формата : Да
Параметр RefFrames формата : 4 кадра
Идентификатор кодека : V_MPEG4/ISO/AVC
Продолжительность : 1 ч. 33 м.
Вид битрейта : Переменный
Битрейт : 5261 Кбит/сек
Максимальный битрейт : 6000 Кбит/сек
Ширина : 1280 пикселей
Высота : 640 пикселей
Соотношение сторон : 2,000
Режим частоты кадров : Постоянный
Частота кадров : 23,976 (24000/1001) кадра/сек
Стандарт вещания : Component
Цветовое пространство : YUV
Субдискретизация насыщенности : 4:2:0
Битовая глубина : 8 бит
Тип развёртки : Прогрессивная
Бит/(Пиксели*Кадры) : 0.262
Размер потока : 3,36 Гбайт (91%)
Default : Да
Forced : Нет
Цветовой диапазон : Limited
Основные цвета : BT.709
Характеристики трансфера : BT.709
Коэффициенты матрицы : BT.709

Аудио
Идентификатор : 2
Формат : AC-3
Формат/Информация : Audio Coding 3
Расширение режима : CM (complete main)
Параметр Endianness формата : Big
Идентификатор кодека : A_AC3
Продолжительность : 1 ч. 33 м.
Вид битрейта : Постоянный
Битрейт : 384 Кбит/сек
Каналы : 2 канала
Расположение каналов : Front: L R
Частота : 48,0 КГц
Частота кадров : 31,250 кадров/сек (1536 spf)
Метод сжатия : С потерями
Размер потока : 257 Мбайт (7%)
Default : Да
Forced : Нет

pb.wtf



Скачать Агата и правда об убийстве через торрент https://a.radikal.ru/a01/1902/74/f613b0905163.jpg Скачать фильм Агата и правда об убийстве через торрент бесплантно в хорошем качестве Описание: 1926 год. Столкнувшись с неприятностями в личной жизни и творческим кризисом, молодая Агата Кристи решает расследовать настоящее ... 10 10 3
Торрент: Зарегистрирован [2019-02-05 06:29] · скачан: 51 раз
Статус: T временная
Размер: 3.69 GB
Как cкачать? Как скачать Агата и правда об убийстве через торрент | qTorrent

% Раздел Тема Автор DL S | L
T Фильмы 2018 [DVDrip, WEB-DLRip, HDrip] (DUB, MVO) [ 1.37 GB ] Агата и правда об убийстве / Agatha and the Truth of Murder [2018 HDRip-AVC] MVO [HDRezka] - ExKinoRay Enigma2010 Скачать
4 | 0
T Фильмы (мультфильмы) cо спонсором показа (Новинки AVI/MKV) [ 1.37 GB ] Агата и правда об убийстве / Agatha and the Truth of Murder [2018 WEB-DLRip] MVO [@MUZOBOZ@] bober100 Скачать
1 | 0

28-11-2019 20:33  

Отключить всю рекламу на сайте

    Дорогой пользователь! Огромная просьба, поблагодарите релизера, оцените раздачу и оставьте свои комментарий, если Вы скачали Агата и правда об убийстве через торрент бесплатно! Внесите свою лепту в развитие PiratBit!
    Комментировать посты могут только пользователи прошедшие не сложную регистрацию
    Показать сообщения:    

    Агата и правда об убийстве через торрент
    Скачать бесплатно Агата и правда об убийстве
    Агата и правда об убийстве скачать торрент
    Агата и правда об убийстве смотреть онлайн
    Cкачать фильм Агата и правда об убийстве бесплатно
    Агата и правда об убийстве скачать торрент в хорошем качестве
    Агата и правда об убийстве смотреть онлайн бесплатно в хорошем качестве


    Вы не можете начинать темы
    Вы не можете отвечать на сообщения
    Вы не можете редактировать свои сообщения
    Вы не можете удалять свои сообщения
    Вы не можете голосовать в опросах
    Вы не можете прикреплять файлы к сообщениям
    Вы можете скачивать файлы