новый адрес
Ссылка на приватное зеркало всего за 1$. Внимание количество ограничено!!!

iTunes

1+1

iTunes

мы

WEB-DL

1

iTunes

Чернобыль

iTunes

Ральф против интернета

Лицензия

ПШазам

Лицензия

Оно 2

Лицензия

30
pack

Вам бонус

ВАЖНО

!!Акция!!

Alien_RageХит недели

RePack

Resident Evil 21

ИГРА 18+

pack

RePack

jed

!!Акция!!

Alien_Rage

RePack

fifa19

RePack

Assassins Creed: Odyssey

RePack

NEED FOR SPEED™ PAYBACK

3 сезон

9 сезон

Бесстыжие 9 сезон

Все сериалы

все сериалы на PB.wtf

RePack

FAR CRY 5
Ребята, катастрофически не хватает 1900р. для оплаты серверов за Октябрь (всвязи с блокировками трафик упал в 3 раза), 1-2р., выручайте.
  

Cycпиpия / Susріrіа (Лука Гуаданьино) [2018, ужасы, фэнтези, триллер, детектив, BDRip-AVC] DUB [iTunes] pb.wtf

Cycпиpия через торрент pb.wtf

Раздают: 1 [ 0 KB/s ]
Размер: 2.96 GB | Добавлен: 10 мес. назад | Торрент скачан:213 раз
Скачать  

05-02-2019 08:31 Cycпиpия Скачать торрент  

Cycпиpия / Susріrіа Год выпуска: 2018
Страна: Италия, США
Жанр: ужасы, фэнтези, триллер, детектив
Продолжительность: 02:32:10
Перевод: Дублированный | iTunes
Субтитры: Русские (полные), Английские (хардсаб на немецкую речь, полные, SDH)

Режиссер: Лука Гуаданьино

rating

В ролях:

Дакота Джонсон, Тильда Суинтон, Дорис Хик, Малгоша Бела, Хлоя Грейс Морец, Ангела Винклер, Ванда Каприоло, Алек Век, Джессика Батю, Елена Фокина

Описание:

Молодая американка приезжает в Берлин, чтобы присоединиться к знаменитой танцевальной труппе. Однако в стенах студии девушка внезапно обнаруживает нечто зловещее и сверхъестественное. Вскоре она понимает, что станет следующей жертвой, если не успеет раскрыть тайну проклятия, которое окутало легендарную танцевальную академию...

Качество: BDRip-AVC
Формат: MKV

Видео: 1024x554 (1.85:1), 24,000 fps, x264 ~1 947 kbps avg, 0.143 bit/pixel
Аудио#1: 48 kHz, AC3 Dolby Digital Plus, 3/2 (L,C,R,l,r) + LFE ch, ~384.00 kbps avg | RUS (iTunes)
Аудио#2: 48 kHz, AC3 Dolby Digital Plus, 3/2 (L,C,R,l,r) + LFE ch, ~448.00 kbps avg | ENG
скриншот  скриншот  скриншот  скриншот  скриншот  

Общее
Уникальный идентификатор : 236402327767229283900243194902304195583 (0xB1D96EA47602579E5DB66F87167703FF)
Полное имя : F:OlLanDGroupSuspiria.2018.BDRip(AVC).OlLanDGroup.mkv
Формат : Matroska
Версия формата : Version 4 / Version 2
Размер файла : 2,96 Гбайт
Продолжительность : 2 ч. 32 м.
Общий поток : 2781 Кбит/сек
Название фильма : Susріrіа.2018 #TorpedoUK#
Дата кодирования : UTC 2019-02-05 07:33:22
Программа кодирования : mkvmerge v29.0.0 ('Like It Or Not') 64-bit
Библиотека кодирования : libebml v1.3.6 + libmatroska v1.4.9

Видео
Идентификатор : 1
Формат : AVC
Формат/Информация : Advanced Video Codec
Профиль формата : High@L4.1
Параметр CABAC формата : Да
Параметр ReFrames формата : 10 кадров
Идентификатор кодека : V_MPEG4/ISO/AVC
Продолжительность : 2 ч. 32 м.
Битрейт : 1947 Кбит/сек
Ширина : 1024 пикселя
Высота : 554 пикселя
Соотношение сторон : 1,85:1
Режим частоты кадров : Постоянный
Частота кадров : 24,000 кадра/сек
Цветовое пространство : YUV
Субдискретизация насыщенности : 4:2:0
Битовая глубина : 8 бит
Тип развёртки : Прогрессивная
Бит/(Пиксели*Кадры) : 0.143
Размер потока : 2,07 Гбайт (70%)
Библиотека кодирования : x264 core 146 r2538 121396c
Настройки программы : cabac=1 / ref=10 / deblock=1:-3:-2 / analyse=0x3:0x113 / me=umh / subme=11 / psy=1 / psy_rd=0.97:0.05 / mixed_ref=1 / me_range=48 / chroma_me=1 / trellis=2 / 8x8dct=1 / cqm=0 / deadzone=21,11 / fast_pskip=1 / chroma_qp_offset=-3 / threads=6 / lookahead_threads=1 / sliced_threads=0 / nr=0 / decimate=1 / interlaced=0 / bluray_compat=0 / constrained_intra=0 / bframes=11 / b_pyramid=2 / b_adapt=2 / b_bias=0 / direct=3 / weightb=1 / open_gop=0 / weightp=2 / keyint=240 / keyint_min=24 / scenecut=40 / intra_refresh=0 / rc_lookahead=40 / rc=2pass / mbtree=0 / bitrate=1947 / ratetol=1.0 / qcomp=0.60 / qpmin=0 / qpmax=69 / qpstep=4 / cplxblur=20.0 / qblur=0.5 / vbv_maxrate=50000 / vbv_bufsize=62500 / nal_hrd=none / filler=0 / ip_ratio=1.40 / pb_ratio=1.30 / aq=1:1.00
Язык : English
Default : Да
Forced : Нет

Аудио #1
Идентификатор : 2
Формат : AC-3
Формат/Информация : Audio Coding 3
Расширение режима : CM (complete main)
Параметр Endianness формата : Big
Идентификатор кодека : A_AC3
Продолжительность : 2 ч. 32 м.
Вид битрейта : Постоянный
Битрейт : 384 Кбит/сек
Каналы : 6 каналов
Расположение каналов : Front: L C R, Side: L R, LFE
Частота : 48,0 КГц
Частота кадров : 31,250 кадров/сек (1536 spf)
Битовая глубина : 16 бит
Метод сжатия : С потерями
Размер потока : 418 Мбайт (14%)
Заголовок : DUB [iTunes]
Язык : Russian
Default : Да
Forced : Нет

Аудио #2
Идентификатор : 3
Формат : AC-3
Формат/Информация : Audio Coding 3
Расширение режима : CM (complete main)
Параметр Endianness формата : Big
Идентификатор кодека : A_AC3
Продолжительность : 2 ч. 32 м.
Вид битрейта : Постоянный
Битрейт : 448 Кбит/сек
Каналы : 6 каналов
Расположение каналов : Front: L C R, Side: L R, LFE
Частота : 48,0 КГц
Частота кадров : 31,250 кадров/сек (1536 spf)
Битовая глубина : 16 бит
Метод сжатия : С потерями
Размер потока : 488 Мбайт (16%)
Заголовок : [Original]
Язык : English
Default : Нет
Forced : Нет

Текст #1
Идентификатор : 4
Формат : UTF-8
Идентификатор кодека : S_TEXT/UTF8
Идентификатор кодека/Информация : UTF-8 Plain Text
Продолжительность : 2 ч. 24 м.
Битрейт : 52 бит/сек
Count of elements : 1287
Размер потока : 55,9 Кбайт (0%)
Заголовок : Full
Язык : Russian
Default : Нет
Forced : Нет

Текст #2
Идентификатор : 5
Формат : UTF-8
Идентификатор кодека : S_TEXT/UTF8
Идентификатор кодека/Информация : UTF-8 Plain Text
Продолжительность : 2 ч. 31 м.
Битрейт : 23 бит/сек
Count of elements : 1080
Размер потока : 25,6 Кбайт (0%)
Заголовок : Full
Язык : English
Default : Нет
Forced : Нет

Текст #3
Идентификатор : 6
Формат : UTF-8
Идентификатор кодека : S_TEXT/UTF8
Идентификатор кодека/Информация : UTF-8 Plain Text
Продолжительность : 2 ч. 31 м.
Битрейт : 33 бит/сек
Count of elements : 1604
Размер потока : 36,8 Кбайт (0%)
Заголовок : SDH
Язык : English
Default : Нет
Forced : Нет

Меню
00:00:00.000 : :Chapter 01
00:11:04.875 : :Chapter 02
00:21:12.583 : :Chapter 03
00:33:40.458 : :Chapter 04
00:46:58.708 : :Chapter 05
00:58:40.458 : :Chapter 06
01:07:54.000 : :Chapter 07
01:19:55.708 : :Chapter 08
01:30:00.750 : :Chapter 09
01:40:24.708 : :Chapter 10
01:52:17.625 : :Chapter 11
02:08:33.041 : :Chapter 12
02:27:19.458 : :Chapter 13

pb.wtf



Скачать Cycпиpия через торрент https://i84.fastpic.ru/big/2019/0205/bc/10c7351fb59cb493dcba2ae577b3dabc.jpg Скачать фильм Cycпиpия через торрент бесплантно в хорошем качестве Описание: Молодая американка приезжает в Берлин, чтобы присоединиться к знаменитой танцевальной труппе. Однако в стенах студии девушка ... 9.9 10 8
Торрент: Зарегистрирован [2019-02-05 08:31] · скачан: 213 раз
Статус: √ проверено
Размер: 2.96 GB
Как cкачать? Как скачать Cycпиpия через торрент | qTorrent

% Раздел Тема Автор DL S | L
Ultra HD (UHD: 2K, 4K, 8K) — видео сверхвысокой чёткости [ 53.38 GB ] Cycпиpия / Susріrіа [1977 UHD BDRemux 2160p] [SDR] MVO [Селена Интернешенел] + 5xAVO DSIO Скачать
2 | 0
Ultra HD (UHD: 2K, 4K, 8K) — видео сверхвысокой чёткости [ 26.12 GB ] Cycпиpия / Susріrіа [1977 UHD BDRip 2160p] [SDR] MVO [Селена Интернешенел] + 5xAVO DSIO Скачать
2 | 0

28-11-2019 20:33  

Отключить всю рекламу на сайте

25-02-2019 11:43 Cycпиpия Скачать торрент  

О чем это ???На ютубе даже трейлера нету!!!! Значит точно чушь какая то...pb.wtf



    Дорогой пользователь! Огромная просьба, поблагодарите релизера, оцените раздачу и оставьте свои комментарий, если Вы скачали Cycпиpия через торрент бесплатно! Внесите свою лепту в развитие PiratBit!
    Комментировать посты могут только пользователи прошедшие не сложную регистрацию
    Показать сообщения:    

    Cycпиpия через торрент
    Скачать бесплатно Cycпиpия
    Cycпиpия скачать торрент
    Cycпиpия смотреть онлайн
    Cкачать фильм Cycпиpия бесплатно
    Cycпиpия скачать торрент в хорошем качестве
    Cycпиpия смотреть онлайн бесплатно в хорошем качестве


    Вы не можете начинать темы
    Вы не можете отвечать на сообщения
    Вы не можете редактировать свои сообщения
    Вы не можете удалять свои сообщения
    Вы не можете голосовать в опросах
    Вы не можете прикреплять файлы к сообщениям
    Вы можете скачивать файлы