Ссылка на приватное зеркало нашего сайта всего за 1$. Внимание количество ограничено!!!

2 сезон

iTunes

1 сезон

1

2 сезон

2 сезон

iTunes

1 сезон

RePack

30

Новинка

ВАЖНО

ИГРА 18+

pack

RePack

MK11
pack

Забери бонус

RePack

jed

!!Акция!!

Alien_Rage

RePack

fifa19

RePack

Assassins Creed: Odyssey

RePack

NEED FOR SPEED™ PAYBACK

4 сезон

9 сезон

Бесстыжие 9 сезон

Все сериалы

все сериалы на PB.wtf

RePack

FAR CRY 5
  

Cycпиpия / Susріrіа (Лука Гуаданьино) [2018, ужасы, фэнтези, триллер, детектив, BD Remux 1080p] DUB [iTunes] pb.wtf

Cycпиpия через торрент pb.wtf

Раздают: 1 [ 0 KB/s ]
Размер: 27.8 GB | Добавлен: 1 год 9 мес. назад | Торрент скачан:194 раза
Скачать  

05-02-2019 10:22 Cycпиpия Скачать торрент  

Cycпиpия / Susріrіа Год выпуска: 2018
Страна: Италия, США
Жанр: ужасы, фэнтези, триллер, детектив
Продолжительность: 02:32:10
Перевод: Дублированный | iTunes
Субтитры: русские (полные), английские (хардсаб на немецкую речь, полные, SDH)

Режиссер: Лука Гуаданьино

rating

В ролях:

Дакота Джонсон, Тильда Суинтон, Дорис Хик, Малгоша Бела, Хлоя Грейс Морец, Ангела Винклер, Ванда Каприоло, Алек Век, Джессика Батю, Елена Фокина

Описание:

Молодая американка приезжает в Берлин, чтобы присоединиться к знаменитой танцевальной труппе. Однако в стенах студии девушка внезапно обнаруживает нечто зловещее и сверхъестественное. Вскоре она понимает, что станет следующей жертвой, если не успеет раскрыть тайну проклятия, которое окутало легендарную танцевальную академию...

Качество: BD Remux 1080p
Формат: MKV

Видео: AVC/H.264, 1920x1080, ~21,9 Мbps, 24 fps
Аудио#1: AC3, 6 ch, 384 kbps - Русский
Аудио#2: AC3, 6 ch, 640 kbps - Английский
Аудио#3: TrueHD, 8 ch, 3111 Kbps kbps - Английский
скриншот  скриншот  скриншот  скриншот  

Общее
Уникальный идентификатор : 306545276740837385999958410740933523743 (0xE69E7908041B418815726A18BD1EF91F)
Полное имя : Susріrіа.2018.Remux.W.mkv
Формат : Matroska
Версия формата : Version 4
Размер файла : 27,8 Гбайт
Продолжительность : 2 ч. 32 м.
Режим общего битрейта : Переменный
Общий поток : 26,2 Мбит/сек
Название фильма : Susріrіа.2018.Remux.W
Дата кодирования : UTC 2019-02-05 08:57:51
Программа кодирования : mkvmerge v23.0.0 ('The Bride Said No') 64-bit
Библиотека кодирования : libebml v1.3.6 + libmatroska v1.4.9

Видео
Идентификатор : 1
Формат : AVC
Формат/Информация : Advanced Video Codec
Профиль формата : High@L4.1
Настройки формата : CABAC / 4 Ref Frames
Параметр CABAC формата : Да
Параметр RefFrames формата : 4 кадра
Идентификатор кодека : V_MPEG4/ISO/AVC
Продолжительность : 2 ч. 32 м.
Вид битрейта : Переменный
Битрейт : 21,9 Мбит/сек
Максимальный битрейт : 28,0 Мбит/сек
Ширина : 1920 пикселей
Высота : 1080 пикселей
Соотношение сторон : 16:9
Режим частоты кадров : Постоянный
Частота кадров : 24,000 кадра/сек
Цветовое пространство : YUV
Субдискретизация насыщенности : 4:2:0
Битовая глубина : 8 бит
Тип развёртки : Прогрессивная
Бит/(Пиксели*Кадры) : 0.441
Размер потока : 23,3 Гбайт (84%)
Язык : English
Default : Да
Forced : Нет

Аудио #1
Идентификатор : 2
Формат : AC-3
Формат/Информация : Audio Coding 3
Коммерческое название : Dolby Digital
Идентификатор кодека : A_AC3
Продолжительность : 2 ч. 32 м.
Вид битрейта : Постоянный
Битрейт : 384 Кбит/сек
Каналы : 6 каналов
Channel layout : L R C LFE Ls Rs
Частота : 48,0 КГц
Частота кадров : 31,250 кадров/сек (1536 SPF)
Битовая глубина : 16 бит
Метод сжатия : С потерями
Размер потока : 418 Мбайт (1%)
Заголовок : DUB [iTunes]
Язык : Russian
ServiceKind : Complete Main
Default : Да
Forced : Нет

Аудио #2
Идентификатор : 3
Формат : AC-3
Формат/Информация : Audio Coding 3
Коммерческое название : Dolby Digital
Идентификатор кодека : A_AC3
Продолжительность : 2 ч. 32 м.
Вид битрейта : Постоянный
Битрейт : 640 Кбит/сек
Каналы : 6 каналов
Channel layout : L R C LFE Ls Rs
Частота : 48,0 КГц
Частота кадров : 31,250 кадров/сек (1536 SPF)
Битовая глубина : 16 бит
Метод сжатия : С потерями
Размер потока : 697 Мбайт (2%)
Язык : English
ServiceKind : Complete Main
Default : Нет
Forced : Нет

Аудио #3
Идентификатор : 4
Формат : MLP FBA 16-ch
Формат/Информация : Meridian Lossless Packing FBA with 16-channel presentation
Коммерческое название : Dolby TrueHD with Dolby Atmos
Идентификатор кодека : A_TRUEHD
Продолжительность : 2 ч. 32 м.
Вид битрейта : Переменный
Битрейт : 3111 Кбит/сек
Максимальный битрейт : 4836 Кбит/сек
Каналы : 8 каналов
Channel layout : L R C LFE Ls Rs Lb Rb
Частота : 48,0 КГц
Частота кадров : 1200,000 кадров/сек (40 SPF)
Метод сжатия : Без потерь
Размер потока : 3,31 Гбайт (12%)
Язык : English
Default : Нет
Forced : Нет
Number of dynamic objects : 11
Bed channel count : 1 канал
Bed channel configuration : LFE

Текст #1
Идентификатор : 5
Формат : UTF-8
Идентификатор кодека : S_TEXT/UTF8
Идентификатор кодека/Информация : UTF-8 Plain Text
Продолжительность : 2 ч. 24 м.
Битрейт : 52 бит/сек
ElementCount : 1287
Размер потока : 55,9 Кбайт (0%)
Заголовок : Full
Язык : Russian
Default : Нет
Forced : Нет

Текст #2
Идентификатор : 6
Формат : UTF-8
Идентификатор кодека : S_TEXT/UTF8
Идентификатор кодека/Информация : UTF-8 Plain Text
Продолжительность : 2 ч. 31 м.
Битрейт : 23 бит/сек
ElementCount : 1080
Размер потока : 25,6 Кбайт (0%)
Заголовок : Full
Язык : English
Default : Нет
Forced : Нет

Текст #3
Идентификатор : 7
Формат : UTF-8
Идентификатор кодека : S_TEXT/UTF8
Идентификатор кодека/Информация : UTF-8 Plain Text
Продолжительность : 2 ч. 31 м.
Битрейт : 33 бит/сек
ElementCount : 1604
Размер потока : 36,8 Кбайт (0%)
Заголовок : SDH
Язык : English
Default : Нет
Forced : Нет

Меню
00:00:00.000 : en:Chapter 01
00:11:04.875 : en:Chapter 02
00:21:12.583 : en:Chapter 03
00:33:40.458 : en:Chapter 04
00:46:58.708 : en:Chapter 05
00:58:40.458 : en:Chapter 06
01:07:54.000 : en:Chapter 07
01:19:55.708 : en:Chapter 08
01:30:00.750 : en:Chapter 09
01:40:24.708 : en:Chapter 10
01:52:17.625 : en:Chapter 11
02:08:33.041 : en:Chapter 12
02:27:19.458 : en:Chapter 13

pb.wtf



Скачать Cycпиpия через торрент https://i84.fastpic.ru/big/2019/0205/bc/10c7351fb59cb493dcba2ae577b3dabc.jpg Скачать фильм Cycпиpия через торрент бесплантно в хорошем качестве Описание: Молодая американка приезжает в Берлин, чтобы присоединиться к знаменитой танцевальной труппе. Однако в стенах студии девушка ... 8.9 10 7
Торрент: Зарегистрирован [2019-02-05 10:22] · скачан: 194 раз
Статус: √ проверено
Размер: 27.8 GB
Как cкачать? Как скачать Cycпиpия через торрент | qTorrent

% Раздел Тема Автор DL S | L
Ultra HD (UHD: 2K, 4K, 8K) — видео сверхвысокой чёткости [ 53.38 GB ] Cycпиpия / Susріrіа [1977 UHD BDRemux 2160p] [SDR] MVO [Селена Интернешенел] + 5xAVO DSIO Скачать
1 | 0
Ultra HD (UHD: 2K, 4K, 8K) — видео сверхвысокой чёткости [ 26.12 GB ] Cycпиpия / Susріrіа [1977 UHD BDRip 2160p] [SDR] MVO [Селена Интернешенел] + 5xAVO DSIO Скачать
1 | 0

28-11-2019 20:33  

Отключить всю рекламу на сайте

    Дорогой пользователь! Огромная просьба, поблагодарите релизера, оцените раздачу и оставьте свои комментарий, если Вы скачали Cycпиpия через торрент бесплатно! Внесите свою лепту в развитие PiratBit!
    Комментировать посты могут только пользователи прошедшие не сложную регистрацию
    Показать сообщения:    

    Cycпиpия через торрент
    Скачать бесплатно Cycпиpия
    Cycпиpия скачать торрент
    Cycпиpия смотреть онлайн
    Cкачать фильм Cycпиpия бесплатно
    Cycпиpия скачать торрент в хорошем качестве
    Cycпиpия смотреть онлайн бесплатно в хорошем качестве


    Вы не можете начинать темы
    Вы не можете отвечать на сообщения
    Вы не можете редактировать свои сообщения
    Вы не можете удалять свои сообщения
    Вы не можете голосовать в опросах
    Вы не можете прикреплять файлы к сообщениям
    Вы можете скачивать файлы