Ссылка на приватное зеркало всего за 1$. Внимание количество ограничено!!!

OK

1+1

iTunes

мы

OK

1

WEB-DLRip

Джокер

Пифагор

Ведьмак / The Witcher сериал

iTunes

ПШазам

ОК

Оно 2

iTunes

30
pack

Вам бонус

ВАЖНО

!!Акция!!

Alien_RageХит недели

RePack

Resident Evil 21

ИГРА 18+

pack

RePack

jed

RePack

fifa19

RePack

Assassins Creed: Odyssey

RePack

NEED FOR SPEED™ PAYBACK

4 сезон

9 сезон

Бесстыжие 9 сезон

Все сериалы

все сериалы на PB.wtf

RePack

FAR CRY 5
  

Мирай из будущего / Mirai no Mirai (Мамору Хосода) [2018, аниме, мультфильм, фэнтези, драма, приключения, BDRip 720p] DUB [Line] pb.wtf

Мирай из будущего через торрент pb.wtf

Размер: 4.71 GB | Добавлен: 11 мес. назад | Торрент скачан:104 раза
Скачать  

05-02-2019 11:09 Мирай из будущего Скачать торрент  

Мирай из будущего / Mirai no Mirai Год выпуска: 2018
Страна: Япония
Жанр: аниме, мультфильм, фэнтези, драма, приключения
Продолжительность: 01:39:02
Перевод: Дублированный | Line
Субтитры: отсутствуют

Режиссер: Мамору Хосода

rating

В ролях:

Ребекка Холл, Джон Чо, Дэниэл Дэ Ким, Криспин Фриман, Стефани Ше, Кодзи Якусё, Эрин Фицджералд, Виктор Брандт, Майкл Синтерниклаас, Виктория Грэйс

Описание:

Мальчик Кун наслаждается беззаботным детством, пока на свет не появляется его маленькая сестра Мирай. Кун очень ревнует родителей к ней, так как младенец притягивает к себе все их внимание. Он часто прячется на заднем дворе дома, где растет магическое семейное дерево. Внезапно Кун оказывается в фантастическом мире, где переплелись настоящее, прошлое и будущее. Один за другим он встречает своих родственников из разных времен: маму он видит маленькой девочкой, прадедушку - сильным юношей, а свою младшую сестру - тинейджером. Благодаря этим невероятным приключениям, Кун открывает для себя новый мир.

Качество: BDRip 720p
Формат: MKV

Видео: h.264,6 361 Кбит/с, 1280x690
Аудио#1: Русский (AC3, 2 ch, 448 Кбит/с)
скриншот  скриншот  скриншот  

Общее
Уникальный идентификатор : 229037346285025557759366481351019819317 (0xAC4EFD051DFF5BBEA5148E6304F37135)
Полное имя : E:\торреннты\Mirai.2018.D.BDRip.72Op.mkv
Формат : Matroska
Версия формата : Version 2
Размер файла : 4,71 Гбайт
Продолжительность : 1 ч. 39 м.
Режим общего битрейта : Переменный
Общий поток : 6810 Кбит/сек
Дата кодирования : UTC 2019-02-05 07:53:05
Программа кодирования : mkvmerge v8.3.0 ('Over the Horizon') 64bit
Библиотека кодирования : libebml v1.3.1 + libmatroska v1.4.2

Видео
Идентификатор : 1
Формат : AVC
Формат/Информация : Advanced Video Codec
Профиль формата : High@L4.1
Настройки формата : CABAC / 4 Ref Frames
Параметр CABAC формата : Да
Параметр RefFrames формата : 4 кадра
Идентификатор кодека : V_MPEG4/ISO/AVC
Продолжительность : 1 ч. 39 м.
Вид битрейта : Переменный
Битрейт : 6361 Кбит/сек
Максимальный битрейт : 7500 Кбит/сек
Ширина : 1280 пикселей
Высота : 690 пикселей
Соотношение сторон : 1,85:1
Режим частоты кадров : Постоянный
Частота кадров : 23,976 (24000/1001) кадра/сек
Стандарт вещания : Component
Цветовое пространство : YUV
Субдискретизация насыщенности : 4:2:0
Битовая глубина : 8 бит
Тип развёртки : Прогрессивная
Бит/(Пиксели*Кадры) : 0.294
Размер потока : 4,31 Гбайт (91%)
Default : Да
Forced : Нет
Цветовой диапазон : Limited
Основные цвета : BT.709
Характеристики трансфера : BT.709
Коэффициенты матрицы : BT.709

Аудио
Идентификатор : 2
Формат : AC-3
Формат/Информация : Audio Coding 3
Идентификатор кодека : A_AC3
Продолжительность : 1 ч. 39 м.
Вид битрейта : Постоянный
Битрейт : 448 Кбит/сек
Каналы : 2 канала
Расположение каналов : Front: L R
Частота : 48,0 КГц
Частота кадров : 31,250 кадров/сек (1536 SPF)
Битовая глубина : 16 бит
Метод сжатия : С потерями
Размер потока : 317 Мбайт (7%)
ServiceKind/String : Complete Main
Default : Да
Forced : Нет

pb.wtf



Скачать Мирай из будущего через торрент https://c.radikal.ru/c15/1902/fc/a44c32a6f0f7.jpg Скачать фильм Мирай из будущего через торрент бесплантно в хорошем качестве Описание: Мальчик Кун наслаждается беззаботным детством, пока на свет не появляется его маленькая сестра Мирай. Кун очень ревнует родителей ... 10 10 3
Торрент: Зарегистрирован [2019-02-05 11:09] · скачан: 104 раз
Статус: # сомнительно
Размер: 4.71 GB
Как cкачать? Как скачать Мирай из будущего через торрент | qTorrent

% Раздел Тема Автор DL S | L
Аниме [HD 720p, 1080p] [ 6.14 GB ] Мирай из будущего / Mirai no Mirai / Mirai of the Future [2018 BDRip 1080p] killermax2013 Скачать
2 | 0
# Фильмы (мультфильмы) cо спонсором показа (Новинки AVI/MKV) [ 8.56 GB ] Мирай из будущего / Mirai no Mirai [2018 аниме мультфильм BDRip 1080p] DUB [Line] bober100 Скачать
1 | 0
T Фильмы (мультфильмы) cо спонсором показа (Новинки AVI/MKV) [ 1.37 GB ] Мирай из будущего / Mirai no Mirai [2018 аниме мультфильм HDRip] DUB [Line] bober100 Скачать
1 | 0

28-11-2019 20:33  

Отключить всю рекламу на сайте

    Дорогой пользователь! Огромная просьба, поблагодарите релизера, оцените раздачу и оставьте свои комментарий, если Вы скачали Мирай из будущего через торрент бесплатно! Внесите свою лепту в развитие PiratBit!
    Комментировать посты могут только пользователи прошедшие не сложную регистрацию
    Показать сообщения:    

    Мирай из будущего через торрент
    Скачать бесплатно Мирай из будущего
    Мирай из будущего скачать торрент
    Мирай из будущего смотреть онлайн
    Cкачать фильм Мирай из будущего бесплатно
    Мирай из будущего скачать торрент в хорошем качестве
    Мирай из будущего смотреть онлайн бесплатно в хорошем качестве


    Вы не можете начинать темы
    Вы не можете отвечать на сообщения
    Вы не можете редактировать свои сообщения
    Вы не можете удалять свои сообщения
    Вы не можете голосовать в опросах
    Вы не можете прикреплять файлы к сообщениям
    Вы можете скачивать файлы