новый адрес
Ссылка на приватное зеркало всего за 1$. Внимание количество ограничено!!!

iTunes

1+1

iTunes

мы

iTunes

1

iTunes

Чернобыль

iTunes

Ральф против интернета

Лицензия

ПШазам

Лицензия

Оно 2

Лицензия

30
pack

Вам бонус

ВАЖНО

!!Акция!!

Alien_RageХит недели

RePack

Resident Evil 21

ИГРА 18+

pack

RePack

jed

!!Акция!!

Alien_Rage

RePack

fifa19

RePack

Assassins Creed: Odyssey

RePack

NEED FOR SPEED™ PAYBACK

3 сезон

9 сезон

Бесстыжие 9 сезон

Все сериалы

все сериалы на PB.wtf

RePack

FAR CRY 5
Ребята, катастрофически не хватает 1900р. для оплаты серверов за Октябрь (всвязи с блокировками трафик упал в 3 раза), 1-2р., выручайте.
  

Лето 84 / Summer of 84 (Франсуа Симар, Анук Висселль, Йоанн-Карл Висселль) [2018 г., Ужасы, триллер, драма, детектив, BDRip] MVO | Jaskier pb.wtf

Лето 84 через торрент pb.wtf

Раздают: 1 [ 0 KB/s ]
Размер: 1.46 GB | Добавлен: 10 мес. назад | Торрент скачан:402 раза
Скачать  

05-02-2019 12:31 Лето 84 Скачать торрент  

Лето 84 / Summer of 84

Год выпуска: 2018
Страна: Канада, США
Жанр: Ужасы, триллер, драма, детектив
Продолжительность: 01:45:36
Перевод: Профессиональный (многоголосый, закадровый) | Jaskier
Субтитры: Отсутствуют

Режиссер: Франсуа Симар, Анук Висселль, Йоанн-Карл Висселль

Премьера в мире: 22 января 2018


rating

В ролях: Грэм Верчир, Джуда Льюис, Калеб Эмери, Кори Грютер-Эндрю, Тиера Сковбай, Рич Соммер, Джейсон Грей-Стенфорд, Шона Йоханнесен, Марк Брэндон, Дж. Алекс Бринсон

Описание: Четверо 15-летних друзей проводят лето 1984 года за необычным занятием: они вычисляют серийного убийцу, несколько лет подряд орудующего в округе. Все улики ведут к соседскому дому, где живёт уважаемый офицер полиции.

Качество: BDRip
Формат: AVI
Видео кодек: XviD
Аудио кодек: AC3
Видео: 720x304 (2,35:1), 23,976 fps, XviD ~ 1522 Кbps avg, 0.290 bit/pixel
Аудио#1: AC3, 48 kHz, 6 ch, ~448.00 kbps avg | русский | Профессиональный (многоголосый закадровый) | Jaskier
Релиз от: MegaPeer







Summer.of.84.2018.BDRip.1.46Gb.Jaskier.MegaPeer.avi
Формат : AVI
Формат/Информация : Audio Video Interleave
Размер файла : 1,46 Гбайт
Продолжительность : 1 ч. 45 м.
Общий поток : 1979 Кбит/сек
Название фильма : Summer.of.84.2018.BDRip.1.46Gb.Jaskier.MegaPeer
Программа кодирования : VirtualDubMod 1.5.10.3 | www.virtualdub-fr.org || (build 2550/release)
Авторское право : MegaPeer

Видео
Идентификатор : 0
Формат : MPEG-4 Visual
Профиль формата : Advanced Simple@L5
Настройки формата : BVOP1 / Custom Matrix
Параметр BVOP формата : 1
Параметр QPel формата : Нет
Параметр GMC формата : Без точки перехода
Параметр матрицы формата : Выборочная
Идентификатор кодека : XVID
Идентификатор кодека/Подсказка : XviD
Продолжительность : 1 ч. 45 м.
Битрейт : 1522 Кбит/сек
Ширина : 720 пикселей
Высота : 304 пикселя
Соотношение сторон : 2,35:1
Частота кадров : 23,976 (24000/1001) кадра/сек
Цветовое пространство : YUV
Субдискретизация насыщенности : 4:2:0
Битовая глубина : 8 бит
Тип развёртки : Прогрессивная
Метод сжатия : С потерями
Бит/(Пиксели*Кадры) : 0.290
Размер потока : 1,12 Гбайт (77%)
Библиотека кодирования : XviD 73

Аудио
Идентификатор : 1
Формат : AC-3
Формат/Информация : Audio Coding 3
Коммерческое название : Dolby Digital
Идентификатор кодека : 2000
Продолжительность : 1 ч. 45 м.
Вид битрейта : Постоянный
Битрейт : 448 Кбит/сек
Каналы : 6 каналов
Channel layout : L R C LFE Ls Rs
Частота : 48,0 КГц
Частота кадров : 31,250 кадров/сек (1536 SPF)
Битовая глубина : 16 бит
Метод сжатия : С потерями
Размер потока : 338 Мбайт (23%)
Выравнивание : Разделение по промежуткам
Продолжительность промежутка : 42 мс. (1,00 видеокадр)
Время предзагрузки промежутка : 500 мс.
ServiceKind/String : Complete Main

pb.wtf



Скачать Лето 84 через торрент http://i91.fastpic.ru/big/2018/1011/70/f078f6da1f1249e58564f331d02eb670.jpg Скачать фильм Лето 84 через торрент бесплантно в хорошем качестве Описание: Четверо 15-летних друзей проводят лето 1984 года за необычным занятием: они вычисляют серийного убийцу, несколько лет подряд ... 10 10 8
Info! Золотая раздача, скачанное не засчитывается.
Торрент: Зарегистрирован [2019-02-05 12:31] · скачан: 402 раз
Статус: √ проверено
Размер: 1.46 GB
Как cкачать? Как скачать Лето 84 через торрент | qTorrent

% Раздел Тема Автор DL S | L
Фильмы [HD 720p, 1080p] (Хороший звук DUB, MVO) [ 9.55 GB ] Лето 84 / Summer of 84 [2018 BDRip 1080p] 2xMVO [Jaskier HDrezka Studio] bober100 Скачать
1 | 0
Фильмы [HD 720p, 1080p] (Хороший звук DUB, MVO) [ 4.63 GB ] Лето 84 / Summer of 84 [2018 BDRip 720p] 2xMVO [Jaskier HDrezka Studio] bober100 Скачать
1 | 0
Отключить всю рекламу на сайте

05-02-2019 13:37 Лето 84 Скачать торрент  

Топик был перенесен из форума Оформление раздач (Кино, Видео и ТВ) в форум Фильмы 2018 [DVDrip, WEB-DLRip, HDrip] (DUB, MVO)


-Lexx-pb.wtf



    Дорогой пользователь! Огромная просьба, поблагодарите релизера, оцените раздачу и оставьте свои комментарий, если Вы скачали Лето 84 через торрент бесплатно! Внесите свою лепту в развитие PiratBit!
    Комментировать посты могут только пользователи прошедшие не сложную регистрацию
    Показать сообщения:    

    Лето 84 через торрент
    Скачать бесплатно Лето 84
    Лето 84 скачать торрент
    Лето 84 смотреть онлайн
    Cкачать фильм Лето 84 бесплатно
    Лето 84 скачать торрент в хорошем качестве
    Лето 84 смотреть онлайн бесплатно в хорошем качестве


    Вы не можете начинать темы
    Вы не можете отвечать на сообщения
    Вы не можете редактировать свои сообщения
    Вы не можете удалять свои сообщения
    Вы не можете голосовать в опросах
    Вы не можете прикреплять файлы к сообщениям
    Вы можете скачивать файлы