Достать ножи: Стеклянная луковица

MVO

Добыча

Дубляж

Уэнсдэй

1 сезон

Тор

Дубляж

13 клиническая

1 сезон

Жестокая ночь

MVO

Одни из нас

1 сезон

Deluxe

pack

Рекомендуем

30

Пиратка

ВАЖНО

ВАЖНО

Ghostwire

Пиратка

jed

RePack

nioh2

RePack

RDR2

RePack

NEED FOR SPEED™ PAYBACK

RePack

скачать торрент

Кинопоиск HD

Острые козырьки 6 сезон

6 сезон

FAR CRY 6

RePack

скачать торрент

Лицензия

скачать торрент

MVO

1

1 сезон

скачать торрент

1 сезон

скачать торрент

Лицензия

  

Собачьи дни / Dog Days (Кен Марино) [2018 г., Драма, комедия, BDRip 1080p] MVO | HDRezka

Собачьи дни через торрент pb.wtf

Размер: 10.81 GB | Добавлен: 3 года 11 мес. назад | Торрент скачан:94 раза
Смотреть онлайн | Скачать | Поддержите нас   

05-02-2019 17:53 Собачьи дни Скачать торрент  

Собачьи дни / Dog Days

«Love is the four-legged word»


Год выпуска: 2018
Страна: США
Производство: LD Entertainment
Жанр: Драма, комедия
Режиссёр: Кен Марино
В ролях: Нина Добрев, Ванесса Энн Хадженс, Тони Белл, Ева Лонгория, Роб Кордри, Адам Палли, Райан Хансен, Джессика Ст. Клер, Томас Леннон, Жасмин Сепас Джонс
Перевод: Профессиональный (многоголосый, закадровый) | [HDRezka]
Субтитры: Английские (полные, SDH)
Реклама: Отсутствует

Описание: Действие фильма происходит в Лос Анджелесе и развивается вокруг группы совершенно непохожих друг на друга людей. Элизабет — знаменитая телеведущая утреннего шоу — пытается справиться со стрессом после проваленного интервью с баскетболистом Джимми. Дружелюбная Тара работает официантом в кафе, а однажды знакомится с Гарретом — скромным владельцем центра по уходу за животными. Грейс и Курт испытывают сложности, так как взяли в семью приемного ребенка. А Дакс — лидер рок-группы, который никак не может повзрослеть. Судьбы главных героев начинают переплетаться, когда они знакомятся друг с другом благодаря домашним питомцам — собакам.


Качество: BDRip 1080p | BDRip 1080p | Dog.Days.2018.1080p.BluRay.DTS-HD.MA.5.1.X264-iFT

Продолжительность: 01:53:02
Формат: MKV
Видео кодек: MPEG-4 AVC
Аудио кодек: AC3
Видео: 1920x800 (2.40:1), 23,976 fps, x264 ~12.0 Мбит/сек, 0.326 bit/pixel
Аудио #1: 48 kHz, AC3 Dolby Digital, 2 (L,R) ch, ~192.00 kbps avg | RUS (HDRezka)
Аудио #2: 48 kHz, DTS Digital Theater System, 3/2 (L,C,R,l,r) + LFE ch, ~1 509.00 kbps avg | ENG
Дата премьеры (мир): 8 августа 2018
Дата премьеры (РФ):
Цифровой релиз:

Релиз от:
Общее
Уникальный идентификатор : 120430513908935985629937182196310695957 (0x5A9A12C37EB59684137F9CA2023F6015)
Полное имя : F:OlLanDGroupDog.Days.2018..BDRip(1080p).OlLanDGroup.mkv
Формат : Matroska
Версия формата : Version 4 / Version 2
Размер файла : 10,8 Гбайт
Продолжительность : 1 ч. 53 м.
Общий поток : 13,7 Мбит/сек
Название фильма : Dog.Days.2018 #TorpedoUK#
Дата кодирования : UTC 2019-02-05 16:43:49
Программа кодирования : mkvmerge v29.0.0 ('Like It Or Not') 64-bit
Библиотека кодирования : libebml v1.3.6 + libmatroska v1.4.9

Видео
Идентификатор : 1
Формат : AVC
Формат/Информация : Advanced Video Codec
Профиль формата : [email protected]
Параметр CABAC формата : Да
Параметр ReFrames формата : 5 кадров
Идентификатор кодека : V_MPEG4/ISO/AVC
Продолжительность : 1 ч. 53 м.
Битрейт : 12,0 Мбит/сек
Ширина : 1920 пикселей
Высота : 800 пикселей
Соотношение сторон : 2,40:1
Режим частоты кадров : Постоянный
Частота кадров : 23,976 (24000/1001) кадра/сек
Цветовое пространство : YUV
Субдискретизация насыщенности : 4:2:0
Битовая глубина : 8 бит
Тип развёртки : Прогрессивная
Бит/(Пиксели*Кадры) : 0.326
Размер потока : 9,47 Гбайт (88%)
Библиотека кодирования : x264 core 142 r2431+42 c69a006 tMod [[email protected] X86_64]
Настройки программы : cabac=1 / ref=5 / deblock=1:-3:-3 / analyse=0x3:0x133 / me=umh / subme=11 / psy=1 / fade_compensate=0.00 / psy_rd=1.05:1.05 / mixed_ref=1 / me_range=48 / chroma_me=1 / trellis=2 / 8x8dct=1 / cqm=0 / deadzone=21,11 / fast_pskip=0 / chroma_qp_offset=-4 / threads=16 / lookahead_threads=2 / sliced_threads=0 / nr=0 / decimate=0 / interlaced=0 / bluray_compat=0 / constrained_intra=0 / fgo=0 / bframes=8 / b_pyramid=2 / b_adapt=2 / b_bias=0 / direct=3 / weightb=1 / open_gop=0 / weightp=2 / keyint=240 / keyint_min=23 / scenecut=40 / intra_refresh=0 / rc_lookahead=240 / rc=2pass / mbtree=0 / bitrate=12000 / ratetol=1.0 / qcomp=0.80 / qpmin=0:0:0 / qpmax=69:69:69 / qpstep=4 / cplxblur=20.0 / qblur=0.5 / vbv_maxrate=40000 / vbv_bufsize=30000 / nal_hrd=none / filler=0 / ip_ratio=1.30 / pb_ratio=1.20 / aq=2:0.78 / aq-sensitivity=10.00 / aq-factor=1.00:1.00:1.00 / aq2=0 / aq3=0
Default : Да
Forced : Нет
Цветовой диапазон : Limited
Основные цвета : BT.709
Характеристики трансфера : BT.709
Коэффициенты матрицы : BT.709

Аудио #1
Идентификатор : 2
Формат : AC-3
Формат/Информация : Audio Coding 3
Расширение режима : CM (complete main)
Параметр Endianness формата : Big
Идентификатор кодека : A_AC3
Продолжительность : 1 ч. 53 м.
Вид битрейта : Постоянный
Битрейт : 192 Кбит/сек
Каналы : 2 канала
Расположение каналов : Front: L R
Частота : 48,0 КГц
Частота кадров : 31,250 кадров/сек (1536 spf)
Битовая глубина : 16 бит
Метод сжатия : С потерями
Размер потока : 155 Мбайт (1%)
Заголовок : MVO [HDRezka]
Язык : Russian
Default : Да
Forced : Нет

Аудио #2
Идентификатор : 3
Формат : DTS
Формат/Информация : Digital Theater Systems
Режим : 16
Параметр Endianness формата : Big
Идентификатор кодека : A_DTS
Продолжительность : 1 ч. 53 м.
Вид битрейта : Постоянный
Битрейт : 1509 Кбит/сек
Каналы : 6 каналов
Расположение каналов : Front: L C R, Side: L R, LFE
Частота : 48,0 КГц
Частота кадров : 93,750 кадра/сек (512 spf)
Битовая глубина : 24 бит
Метод сжатия : С потерями
Размер потока : 1,19 Гбайт (11%)
Заголовок : [Original]
Язык : English
Default : Нет
Forced : Нет

Текст #1
Идентификатор : 4
Формат : UTF-8
Идентификатор кодека : S_TEXT/UTF8
Идентификатор кодека/Информация : UTF-8 Plain Text
Продолжительность : 1 ч. 52 м.
Битрейт : 92 бит/сек
Count of elements : 2490
Размер потока : 76,4 Кбайт (0%)
Заголовок : Full
Язык : English
Default : Нет
Forced : Нет

Текст #2
Идентификатор : 5
Формат : UTF-8
Идентификатор кодека : S_TEXT/UTF8
Идентификатор кодека/Информация : UTF-8 Plain Text
Продолжительность : 1 ч. 52 м.
Битрейт : 98 бит/сек
Count of elements : 2695
Размер потока : 81,7 Кбайт (0%)
Заголовок : SDH
Язык : English
Default : Нет
Forced : Нет

Меню
00:00:00.000 : en:Chapter 1
00:07:30.450 : en:Chapter 2
00:15:09.909 : en:Chapter 3
00:21:57.316 : en:Chapter 4
00:30:47.846 : en:Chapter 5
00:43:40.618 : en:Chapter 6
00:55:46.343 : en:Chapter 7
01:04:24.861 : en:Chapter 8
01:14:54.490 : en:Chapter 9
01:23:13.405 : en:Chapter 10
01:36:57.812 : en:Chapter 11
01:44:44.278 : en:Chapter 12



Скачать Собачьи дни через торрент https://i110.fastpic.ru/big/2019/0205/6e/28e11e2f0efaa78f815f7c31d3f1ed6e.jpg Скачать, смотреть онлайн Собачьи дни бесплантно в хорошем качестве Описание: Действие фильма происходит в Лос Анджелесе и развивается вокруг группы совершенно непохожих друг на друга людей. Элизабет — ... 10 10 1
Торрент: Зарегистрирован [2019-02-05 17:53] · скачан: 94 раз
Статус: T временная
Размер: 10.81 GB
Как cкачать? Как скачать Собачьи дни через торрент | UTorrent

% Раздел Тема Автор DL S | L
Фильмы 2018 [DVDrip, WEB-DLRip, HDrip] (DUB, MVO) [ 1.46 GB ] Собачьи дни / Dog Days | HDRezka Studio | BDRip bober100 Скачать
1 | 0
Фильмы 2018 [DVDrip, WEB-DLRip, HDrip] (DUB, MVO) [ 2.2 GB ] Собачьи дни / Dog Days | iTunes | BDRip-AVC bober100 Скачать
1 | 0
T Фильмы 2018 [DVDrip, WEB-DLRip, HDrip] (DUB, MVO) [ 1.46 GB ] Собачьи дни / Dog Days | HDRezka Studio | BDRip Skandar2019 Скачать
1 | 0

28-11-2019 20:33  


Отключить вcю реклaмy на сайте, в т.ч. и в плеере онлайн просмотра!

    Дорогой пользователь! Огромная просьба, поблагодарите релизера, оцените раздачу и оставьте свои комментарий, если Вы скачали Собачьи дни через торрент бесплатно!!
    Комментировать посты могут только пользователи прошедшие не сложную регистрацию
    Показать сообщения:    


    Собачьи дни через торрент
    Скачать бесплатно Собачьи дни
    Собачьи дни скачать торрент
    Собачьи дни смотреть онлайн
    Cкачать фильм Собачьи дни бесплатно
    Собачьи дни скачать торрент в хорошем качестве
    Собачьи дни смотреть онлайн бесплатно в хорошем качестве
    Вы не можете начинать темы
    Вы не можете отвечать на сообщения
    Вы не можете редактировать свои сообщения
    Вы не можете удалять свои сообщения
    Вы не можете голосовать в опросах
    Вы не можете прикреплять файлы к сообщениям
    Вы можете скачивать файлы
    Собачьи дни / Dog Days [2018 г., Драма, комедия, BDRip 1080p] MVO | HDRezka смотреть онлайн, скачать торрент picoco.icu