Ссылка на приватное зеркало нашего сайта всего за 1$. Внимание количество ограничено!!!

2 сезон

iTunes

1 сезон

1

iTunes

iTunes

iTunes

1 сезон

RePack

30

ИГРА 18+

pack

ВАЖНО

!!Акция!!

Alien_RageХит недели

RePack

MK11
pack

Забери бонус

RePack

jed

!!Акция!!

Alien_Rage

RePack

fifa19

RePack

Assassins Creed: Odyssey

RePack

NEED FOR SPEED™ PAYBACK

4 сезон

9 сезон

Бесстыжие 9 сезон

Все сериалы

все сериалы на PB.wtf

RePack

FAR CRY 5
  

Три богатыря и Наследница престола (Константин Бронзит) [2018 г., мультфильм, приключения, семейный, WEB-DLRip] iTunes pb.wtf

Три богатыря и Наследница престола через торрент pb.wtf

Раздают: 5 [ 0 KB/s ]
Размер: 1.46 GB | Добавлен: 1 год 8 мес. назад | Торрент скачан:886 раз
Скачать  

05-02-2019 18:39 Три богатыря и Наследница престола Скачать торрент  

Три богатыря и Наследница престола

Год выпуска: 2018
Страна: Россия
Жанр: мультфильм, приключения, семейный
Продолжительность: 01:21:10
Перевод: Не требуется | iTunes
Субтитры: Отсутствуют

Режиссер: Константин Бронзит


rating

В ролях: Михаил Черняк, Сергей Маковецкий, Дмитрий Быковский-Ромашов, Валерий Соловьев, Олег Куликович, Дмитрий Высоцкий, Александр Боярский, Екатерина Гороховская, Юрий Тарасов, Юрий Кузнецов

Описание: Князь Киевский решил назначить наследника престола, только вот незадача — кто это может быть? Родственник, друг семьи или может быть, заморская принцесса? Недолго думая, Князь-батюшка выбирает почти принцессу, а главное родственницу — племянницу Забаву. Нынче она вместе со своим мужем Елисеем (помните верного ученика Добрыни Никитича?) получает образование в далеком Царьграде, где правит коварный Василевс. Чтобы вернуть наследницу на родные просторы за тридевять земель в спешном порядке отправляются три богатыря и, конечно же, главный придворный конь Юлий.

Качество: WEB-DLRip
Формат: AVI
Видео кодек: XviD
Аудио кодек: AC3
Видео: 704x400 (16:9), 25 fps, XviD ~ 2183 Kbps avg, 0.310 bit/pixel
Аудио#1: AC3, 48 kHz, 6 ch, ~384.00 kbps avg | русский| iTunes

Релиз от: MegaPeer





3_BOGATYRYA_I_NASLEDNICA_2018_WEB_DLRip.1.46Gb.MegaPeer.avi
Формат : AVI
Формат/Информация : Audio Video Interleave
Размер файла : 1,46 Гбайт
Продолжительность : 1 ч. 21 м.
Общий поток : 2576 Кбит/сек
Название фильма : 3_BOGATYRYA_I_NASLEDNICA_2018_WEB_DLRip.1.46Gb.MegaPeer
Программа кодирования : VirtualDubMod 1.5.10.3 | www.virtualdub-fr.org || (build 2550/release)
Авторское право : MegaPeer

Видео
Идентификатор : 0
Формат : MPEG-4 Visual
Профиль формата : Advanced Simple@L5
Настройки формата : BVOP1 / Custom Matrix
Параметр BVOP формата : 1
Параметр QPel формата : Нет
Параметр GMC формата : Без точки перехода
Параметр матрицы формата : Выборочная
Идентификатор кодека : XVID
Идентификатор кодека/Подсказка : XviD
Продолжительность : 1 ч. 21 м.
Битрейт : 2183 Кбит/сек
Ширина : 704 пикселя
Высота : 400 пикселей
Соотношение сторон : 16:9
Частота кадров : 25,000 кадров/сек
Цветовое пространство : YUV
Субдискретизация насыщенности : 4:2:0
Битовая глубина : 8 бит
Тип развёртки : Прогрессивная
Метод сжатия : С потерями
Бит/(Пиксели*Кадры) : 0.310
Размер потока : 1,24 Гбайт (85%)
Библиотека кодирования : XviD 73

Аудио
Идентификатор : 1
Формат : AC-3
Формат/Информация : Audio Coding 3
Коммерческое название : Dolby Digital
Идентификатор кодека : 2000
Продолжительность : 1 ч. 21 м.
Вид битрейта : Постоянный
Битрейт : 384 Кбит/сек
Каналы : 6 каналов
Channel layout : L R C LFE Ls Rs
Частота : 48,0 КГц
Частота кадров : 31,250 кадров/сек (1536 SPF)
Битовая глубина : 16 бит
Метод сжатия : С потерями
Размер потока : 223 Мбайт (15%)
Выравнивание : Разделение по промежуткам
Продолжительность промежутка : 40 мс. (1,00 видеокадр)
Время предзагрузки промежутка : 500 мс.
ServiceKind/String : Complete Main

pb.wtf



Скачать Три богатыря и Наследница престола через торрент https://b.radikal.ru/b40/1902/7d/d0bb2118e911.png Скачать фильм Три богатыря и Наследница престола через торрент бесплантно в хорошем качестве Описание: Князь Киевский решил назначить наследника престола, только вот незадача — кто это может быть? Родственник, друг семьи или может ... 9.7 10 25
Торрент: Зарегистрирован [2019-02-05 18:39] · скачан: 886 раз
Статус: √ проверено
Размер: 1.46 GB
Как cкачать? Как скачать Три богатыря и Наследница престола через торрент | qTorrent

% Раздел Тема Автор DL S | L
Мультфильмы (48-60 fps) [ 5.87 GB ] Три богатыря и Наследница престола [2018 мультфильм BDRip 720p 60 fps] sheker187 Скачать
3 | 0
Наши мультфильмы [ 1.17 GB ] Три богатыря и Наследница престола [2018 мультфильм WEB-DLRip-AVC] - ExKinoRay Enigma2010 Скачать
2 | 0
Наши Мультфильмы (HD, WEB-DL 720p, 1080p) [ 2.57 GB ] Три богатыря и Наследница престола [2018 мультфильм WEB-DL 720p] bober100 Скачать
5 | 0
Наши мультфильмы [ 745 MB ] Три богатыря и Наследница престола [2018 мультфильм WEB-DLRip] bober100 Скачать
1 | 0
Наши мультфильмы [ 700 MB ] Три богатыря и Наследница престола [2018 мультфильм WEB-DLRip-AVC] Skandar2019 Скачать
1 | 0
Наши Мультфильмы (HD, WEB-DL 720p, 1080p) [ 3.12 GB ] Три богатыря и Наследница престола [2018 мультфильм WEB-DL 1080p] -Lexx- Скачать
4 | 0

28-11-2019 20:33  

Отключить всю рекламу на сайте

05-02-2019 19:21 Три богатыря и Наследница престола Скачать торрент  

Топик был перенесен из форума Оформление раздач (Кино, Видео и ТВ) в форум Наши мультфильмы


-Lexx-pb.wtf



    Дорогой пользователь! Огромная просьба, поблагодарите релизера, оцените раздачу и оставьте свои комментарий, если Вы скачали Три богатыря и Наследница престола через торрент бесплатно! Внесите свою лепту в развитие PiratBit!
    Комментировать посты могут только пользователи прошедшие не сложную регистрацию
    Показать сообщения:    

    Три богатыря и Наследница престола через торрент
    Скачать бесплатно Три богатыря и Наследница престола
    Три богатыря и Наследница престола скачать торрент
    Три богатыря и Наследница престола смотреть онлайн
    Cкачать фильм Три богатыря и Наследница престола бесплатно
    Три богатыря и Наследница престола скачать торрент в хорошем качестве
    Три богатыря и Наследница престола смотреть онлайн бесплатно в хорошем качестве


    Вы не можете начинать темы
    Вы не можете отвечать на сообщения
    Вы не можете редактировать свои сообщения
    Вы не можете удалять свои сообщения
    Вы не можете голосовать в опросах
    Вы не можете прикреплять файлы к сообщениям
    Вы можете скачивать файлы