новый адрес
Мега распродажа FORZA HORIZON 4 ULTIMATE+ВСЕ DLC+ОНЛАЙН всего за 499р. 349 руб. (супер цена). Внимание количество ограничено!!!

iTunes

1+1

iTunes

мы

iTunes

1

iTunes

Чернобыль

iTunes

Ральф против интернета

Лицензия

ПШазам

Лицензия

Оно 2

Лицензия

30
pack

ВАЖНО

!!Акция!!

Alien_RageХит недели

RePack

Resident Evil 21

ИГРА 18+

pack

RePack

jed

!!Акция!!

Alien_Rage

RePack

fifa19

RePack

Assassins Creed: Odyssey

RePack

NEED FOR SPEED™ PAYBACK

3 сезон

9 сезон

Бесстыжие 9 сезон

Все сериалы

все сериалы на PB.wtf

RePack

FAR CRY 5
Ребята, катастрофически не хватает 1900р. для оплаты серверов за Октябрь (всвязи с блокировками трафик упал в 3 раза), 1-2р., выручайте.
  

Приключения Кроша (Генрих Оганисян) [1962, СССР, приключения, семейный, DVDRip от AVP Studio] pb.wtf

Приключения Кроша через торрент pb.wtf

Размер: 1.09 GB | Добавлен: 9 мес. назад | Торрент скачан:6 раз
Скачать  

06-02-2019 09:08 Приключения Кроша Скачать торрент  

Приключения Кроша
Страна: СССР
Производство: Киностудия им. М. Горького

Жанр: приключения, семейный
Год выпуска: 1962
Продолжительность: 01:20:31

Перевод: Не требуется
Cубтитры: нет
Оригинальная аудиодорожка: русский

Режиссер: Генрих Оганисян

В ролях:
Николай Томашевский, Андрей Юренев, Никита Михалков, И. Погребенко, Вера Белякова, Е. Логинова, В. Суханов, М. Сысуев, Светлана Балашова, Николай Парфёнов, Владимир Кашпур, Владимир Калмыков, Нина Шатерникова, Лариса Лужина, Савелий Крамаров...
Об актёрах подробней

Описание:
По одноименной повести Анатолия Рыбакова.
Ребята-старшеклассники проходят практику на автобазе. Это их первое знакомство не только с производством, но и со взрослой жизнью. На базе происходит ЧП: со склада пропадает новенький амортизатор, а затем и машина. И наблюдательный Крош начинает расследование...

Источник: DVD9 R5
Качество видео: DVDRip
Формат видео: AVI

Видео: 688х512 (4:3), 25 fps, XviD ~ 1476 kbps avg, 0.168 bit/pixel
Аудио: 48 kHz, Dolby Digital AC3 5.1, 448 kbps

Раздача от:
Общее
Полное имя : E:\Tracker\2019\Приключения Кроша\Priklyucheniya.Krosha.1962.DVDRip_[New-team]_by_AVP_Studio.avi
Формат : AVI
Формат/Информация : Audio Video Interleave
Размер файла : 1,09 Гбайт
Продолжительность : 1 ч. 20 м.
Общий поток : 1934 Кбит/сек
Программа кодирования : VirtualDubMod 1.5.10.3 | www.virtualdub-fr.org || (build 2550/release)
Библиотека кодирования : VirtualDubMod build 2550/release

Видео
Идентификатор : 0
Формат : MPEG-4 Visual
Профиль формата : Advanced Simple@L5
Настройки формата : BVOP1 / Custom Matrix
Параметр BVOP формата : 1
Параметр QPel формата : Нет
Параметр GMC формата : Без точки перехода
Параметр матрицы формата : Выборочная
Идентификатор кодека : XVID
Идентификатор кодека/Подсказка : XviD
Продолжительность : 1 ч. 20 м.
Битрейт : 1476 Кбит/сек
Ширина : 688 пикселей
Высота : 512 пикселей
Соотношение сторон : 4:3
Частота кадров : 25,000 кадров/сек
Цветовое пространство : YUV
Субдискретизация насыщенности : 4:2:0
Битовая глубина : 8 бит
Тип развёртки : Прогрессивная
Метод сжатия : С потерями
Бит/(Пиксели*Кадры) : 0.168
Размер потока : 850 Мбайт (76%)
Библиотека кодирования : XviD 73

Аудио
Идентификатор : 1
Формат : AC-3
Формат/Информация : Audio Coding 3
Коммерческое название : Dolby Digital
Идентификатор кодека : 2000
Продолжительность : 1 ч. 20 м.
Вид битрейта : Постоянный
Битрейт : 448 Кбит/сек
Каналы : 6 каналов
Channel layout : L R C LFE Ls Rs
Частота : 48,0 КГц
Частота кадров : 31,250 кадров/сек (1536 SPF)
Битовая глубина : 16 бит
Метод сжатия : С потерями
Размер потока : 258 Мбайт (23%)
Выравнивание : Разделение по промежуткам
Продолжительность промежутка : 40 мс. (1,00 видеокадр)
Время предзагрузки промежутка : 500 мс
pb.wtf



Скачать Приключения Кроша через торрент http://picplus.ru/img/1902/05/ccd7437f.png Скачать фильм Приключения Кроша через торрент бесплантно в хорошем качестве Описание:По одноименной повести Анатолия Рыбакова.Ребята-старшеклассники проходят практику на автобазе. Это их первое знакомство не только ... 5 10 1
Торрент: Зарегистрирован [2019-02-06 09:08] · скачан: 6 раз
Статус: √ проверено
Размер: 1.09 GB
Как cкачать? Как скачать Приключения Кроша через торрент | qTorrent

% Раздел Тема Автор DL S | L
Кино СССР [ 1.09 GB ] Кроша [1962 СССР DVDRip-AVC от AVP Studio] AVP Studio Скачать
1 | 0
Детские отечественные фильмы [ 2.2 GB ] Каникулы Кроша [1980 детский DVDRip] Скорпион1976 Скачать
1 | 0


>> Регистрируемся здесь <<






Отзывы и комментарии о схеме читаем и пишем здесь: ---> Отзывы и комментарии о схеме

Новые благодарочки в телеграм довольных пользователей:
скриншот   скриншот   скриншот   скриншот   скриншот
    Дорогой пользователь! Огромная просьба, поблагодарите релизера, оцените раздачу и оставьте свои комментарий, если Вы скачали Приключения Кроша через торрент бесплатно! Внесите свою лепту в развитие PiratBit!
    Комментировать посты могут только пользователи прошедшие не сложную регистрацию
    Показать сообщения:    

    Приключения Кроша через торрент
    Скачать бесплатно Приключения Кроша
    Приключения Кроша скачать торрент
    Приключения Кроша смотреть онлайн
    Cкачать фильм Приключения Кроша бесплатно
    Приключения Кроша скачать торрент в хорошем качестве
    Приключения Кроша смотреть онлайн бесплатно в хорошем качестве


    Вы не можете начинать темы
    Вы не можете отвечать на сообщения
    Вы не можете редактировать свои сообщения
    Вы не можете удалять свои сообщения
    Вы не можете голосовать в опросах
    Вы не можете прикреплять файлы к сообщениям
    Вы можете скачивать файлы