Ссылка на приватное зеркало всего за 1$. Внимание количество ограничено!!!

iTunes

1+1

iTunes

мы

iTunes

1

WEB-DLRip

Джокер

Пифагор

Ведьмак / The Witcher сериал

iTunes

ПШазам

iTunes

Оно 2

iTunes

30
pack

Новость дня

ВАЖНО

!!Акция!!

Alien_RageХит недели

RePack

Resident Evil 21

ИГРА 18+

pack

RePack

jed

!!Акция!!

Alien_Rage

RePack

fifa19

RePack

Assassins Creed: Odyssey

RePack

NEED FOR SPEED™ PAYBACK

4 сезон

9 сезон

Бесстыжие 9 сезон

Все сериалы

все сериалы на PB.wtf

RePack

FAR CRY 5
  

«Ахап Ереч» Роальда Даля / Roald Dahl's Esio Trot (Дирбла Уолш) [2015, мелодрама, комедия, семейный, BDRip 720p] MVO ["Синема УС"] pb.wtf

«Ахап Ереч» Роальда Даля через торрент pb.wtf

Размер: 4.44 GB | Добавлен: 1 год 1 мес. назад | Торрент скачан:15 раз
Скачать  

06-02-2019 10:24 «Ахап Ереч» Роальда Даля Скачать торрент  

«Ахап Ереч» Роальда Даля / Roald Dahl's Esio Trot Год выпуска: 2015
Страна: Великобритания
Жанр: мелодрама, комедия, семейный
Продолжительность: 01:29:00
Перевод: Любительский (многоголосый) | "Синема УС"
Субтитры: отсутствуют

Режиссер: Дирбла Уолш

rating

В ролях:

Джеймс Корден, Сало Гарднер, Дастин Хоффман, Ричард Кордери, Джуди Денч, Полли Кемп, Эмили Ральф, Джеффри МакГайверн, Джимми Экинбола, Джозеф Уэст

Описание:

Мистер Хоппи и миссис Сильвер проживают в одном доме на разных этажах. Мистер Хоппи выращивает цветы на балконе и тайно влюблён в свою соседку. Хотя они знакомы уже 5 лет, мужчина никак не может набраться храбрости и пригласить её на чашечку чая. Одним из интересов овдовевшей миссис Сильвер является её черепашка Алфи, которая, как она считает, слишком медленно растёт. Мистер Хоппи решает помочь своей возлюбленной и покупает сотню черепах разного размера, а миссис Сильвер говорит, чтобы она каждый день повторяла заклинание для роста черепах, начинающееся со слов «Ахап Ереч», то есть слова «черепаха» наоборот. Он неутомимо подменяет черепашек, и миссис Сильвер уверена, что заклинание работает...

Качество: BDRip 720p
Формат: MKV

Видео: h.264,6 684 kb/s, 1280x536
Аудио#1: Русский (AC3, 2 ch, 448 Кбит/с)
скриншот  скриншот  скриншот  

Общее
Уникальный идентификатор : 228718173693120222219720306412850864846 (0xAC118498A40CF724B1270401BCB562CE)
Полное имя : E:\торреннты\Roald.Dahls.Esio.Trot.2015.P.BDRip.72Op_KOSHARA.mkv
Формат : Matroska
Версия формата : Version 2
Размер файла : 4,44 Гбайт
Продолжительность : 1 ч. 29 м.
Режим общего битрейта : Переменный
Общий поток : 7134 Кбит/сек
Дата кодирования : UTC 2019-02-05 20:55:06
Программа кодирования : mkvmerge v8.3.0 ('Over the Horizon') 64bit
Библиотека кодирования : libebml v1.3.1 + libmatroska v1.4.2

Видео
Идентификатор : 1
Формат : AVC
Формат/Информация : Advanced Video Codec
Профиль формата : High@L4.1
Настройки формата : CABAC / 4 Ref Frames
Параметр CABAC формата : Да
Параметр RefFrames формата : 4 кадра
Идентификатор кодека : V_MPEG4/ISO/AVC
Продолжительность : 1 ч. 29 м.
Вид битрейта : Переменный
Битрейт : 6684 Кбит/сек
Максимальный битрейт : 7500 Кбит/сек
Ширина : 1280 пикселей
Высота : 720 пикселей
Соотношение сторон : 16:9
Режим частоты кадров : Постоянный
Частота кадров : 23,976 (24000/1001) кадра/сек
Стандарт вещания : Component
Цветовое пространство : YUV
Субдискретизация насыщенности : 4:2:0
Битовая глубина : 8 бит
Тип развёртки : Прогрессивная
Бит/(Пиксели*Кадры) : 0.296
Размер потока : 4,07 Гбайт (92%)
Default : Да
Forced : Нет
Цветовой диапазон : Limited
Основные цвета : BT.709
Характеристики трансфера : BT.709
Коэффициенты матрицы : BT.709

Аудио
Идентификатор : 2
Формат : AC-3
Формат/Информация : Audio Coding 3
Идентификатор кодека : A_AC3
Продолжительность : 1 ч. 29 м.
Вид битрейта : Постоянный
Битрейт : 448 Кбит/сек
Каналы : 2 канала
Расположение каналов : Front: L R
Частота : 48,0 КГц
Частота кадров : 31,250 кадров/сек (1536 SPF)
Битовая глубина : 16 бит
Метод сжатия : С потерями
Размер потока : 285 Мбайт (6%)
ServiceKind/String : Complete Main
Default : Да
Forced : Нет

pb.wtf



Скачать «Ахап Ереч» Роальда Даля через торрент https://d.radikal.ru/d08/1902/aa/e6bc20f8988d.jpg Скачать фильм «Ахап Ереч» Роальда Даля через торрент бесплантно в хорошем качестве Описание: Мистер Хоппи и миссис Сильвер проживают в одном доме на разных этажах. Мистер Хоппи выращивает цветы на балконе и тайно влюблён в ... 10 10 2
Торрент: Зарегистрирован [2019-02-06 10:24] · скачан: 15 раз
Статус: # сомнительно
Размер: 4.44 GB
Как cкачать? Как скачать «Ахап Ереч» Роальда Даля через торрент | qTorrent

28-11-2019 20:33  

Отключить всю рекламу на сайте

    Дорогой пользователь! Огромная просьба, поблагодарите релизера, оцените раздачу и оставьте свои комментарий, если Вы скачали «Ахап Ереч» Роальда Даля через торрент бесплатно! Внесите свою лепту в развитие PiratBit!
    Комментировать посты могут только пользователи прошедшие не сложную регистрацию
    Показать сообщения:    

    «Ахап Ереч» Роальда Даля через торрент
    Скачать бесплатно «Ахап Ереч» Роальда Даля
    «Ахап Ереч» Роальда Даля скачать торрент
    «Ахап Ереч» Роальда Даля смотреть онлайн
    Cкачать фильм «Ахап Ереч» Роальда Даля бесплатно
    «Ахап Ереч» Роальда Даля скачать торрент в хорошем качестве
    «Ахап Ереч» Роальда Даля смотреть онлайн бесплатно в хорошем качестве


    Вы не можете начинать темы
    Вы не можете отвечать на сообщения
    Вы не можете редактировать свои сообщения
    Вы не можете удалять свои сообщения
    Вы не можете голосовать в опросах
    Вы не можете прикреплять файлы к сообщениям
    Вы можете скачивать файлы