Ссылка на приватное зеркало нашего сайта всего за 1$. Внимание количество ограничено!!!

2 сезон

iTunes

iTunes

1

iTunes

iTunes

iTunes

WEBRip

iTunes

30
pack

Вам бонус

ВАЖНО

!!Акция!!

Alien_RageХит недели

RePack

Horizon Zero Dawn

ИГРА 18+

pack

RePack

jed

!!Акция!!

Alien_Rage

RePack

fifa19

RePack

Assassins Creed: Odyssey

RePack

NEED FOR SPEED™ PAYBACK

4 сезон

9 сезон

Бесстыжие 9 сезон

Все сериалы

все сериалы на PB.wtf

RePack

FAR CRY 5
  

Моцзинь: Долина червя / Yun nan chong gu (Фэй Син) [2018, приключения, фэнтези, TS 720p] MVO [КОЛОБОК] pb.wtf

Моцзинь: Долина червя через торрент pb.wtf

Размер: 2.8 GB | Добавлен: 1 год 7 мес. назад | Торрент скачан:42 раза
Скачать  

06-02-2019 10:56 Моцзинь: Долина червя Скачать торрент  

Моцзинь: Долина червя / Yun nan chong guГод выпуска: 2018
Страна: Китай
Жанр: приключения, фэнтези
Продолжительность: 01:35:57
Перевод: Любительский (многоголосый) | КОЛОБОК
Субтитры: Вшитые

Режиссер: Фэй Син

rating

В ролях:

Марк Ма, Чэнь Тайшэн

Описание:

Группа отважных исследователей древностей отправляется в пещеры провинции Юньнань. Там археологов поджидают затерянные гробницы, призраки, ловушки и, конечно же, свирепые монстры.

Качество: TS 720p
Формат: MKV

Видео: h.264,3 791 Кбит/с, 1280x528
Аудио#1: Русский, (AC3, 2 ch, 384 Кбит/с)
скриншот  скриншот  скриншот  

Общее
Уникальный идентификатор : 226485461154219938443293912599757635488 (0xAA63835E7CFE9A60B9E1D8ABB2DCBFA0)
Полное имя : E:\торреннты\Mo.Jin.the.Worm.Valley.2018.Pk.TS.72Op.mkv
Формат : Matroska
Версия формата : Version 2
Размер файла : 2,80 Гбайт
Продолжительность : 1 ч. 35 м.
Режим общего битрейта : Переменный
Общий поток : 4177 Кбит/сек
Дата кодирования : UTC 2019-02-05 20:00:43
Программа кодирования : mkvmerge v8.3.0 ('Over the Horizon') 64bit
Библиотека кодирования : libebml v1.3.1 + libmatroska v1.4.2

Видео
Идентификатор : 1
Формат : AVC
Формат/Информация : Advanced Video Codec
Профиль формата : High@L4.1
Настройки формата : CABAC / 4 Ref Frames
Параметр CABAC формата : Да
Параметр RefFrames формата : 4 кадра
Идентификатор кодека : V_MPEG4/ISO/AVC
Продолжительность : 1 ч. 35 м.
Вид битрейта : Переменный
Битрейт : 3791 Кбит/сек
Максимальный битрейт : 4000 Кбит/сек
Ширина : 1280 пикселей
Высота : 528 пикселей
Соотношение сторон : 2,40:1
Режим частоты кадров : Постоянный
Частота кадров : 23,976 (24000/1001) кадра/сек
Стандарт вещания : Component
Цветовое пространство : YUV
Субдискретизация насыщенности : 4:2:0
Битовая глубина : 8 бит
Тип развёртки : Прогрессивная
Бит/(Пиксели*Кадры) : 0.229
Размер потока : 2,49 Гбайт (89%)
Default : Да
Forced : Нет
Цветовой диапазон : Limited
Основные цвета : BT.709
Характеристики трансфера : BT.709
Коэффициенты матрицы : BT.709

Аудио
Идентификатор : 2
Формат : AC-3
Формат/Информация : Audio Coding 3
Идентификатор кодека : A_AC3
Продолжительность : 1 ч. 35 м.
Вид битрейта : Постоянный
Битрейт : 384 Кбит/сек
Каналы : 2 канала
Расположение каналов : Front: L R
Частота : 48,0 КГц
Частота кадров : 31,250 кадров/сек (1536 SPF)
Битовая глубина : 16 бит
Метод сжатия : С потерями
Размер потока : 264 Мбайт (9%)
ServiceKind/String : Complete Main
Default : Да
Forced : Нет

pb.wtf



Скачать Моцзинь: Долина червя через торрент https://b.radikal.ru/b00/1902/b8/8f42da3827c0.jpg Скачать фильм Моцзинь: Долина червя через торрент бесплантно в хорошем качестве Описание: Группа отважных исследователей древностей отправляется в пещеры провинции Юньнань. Там археологов поджидают затерянные гробницы, ... 10 10 2
Торрент: Зарегистрирован [2019-02-06 10:56] · скачан: 42 раз
Статус: T временная
Размер: 2.8 GB
Как cкачать? Как скачать Моцзинь: Долина червя через торрент | qTorrent

% Раздел Тема Автор DL S | L
T Фильмы (мультфильмы) cо спонсором показа (Новинки AVI/MKV) [ 1.37 GB ] Моцзинь: Долина червя / Yun nan chong gu [2018 TS] MVO [КОЛОБОК] bober100 Скачать
1 | 0

28-11-2019 20:33  

Отключить всю рекламу на сайте

    Дорогой пользователь! Огромная просьба, поблагодарите релизера, оцените раздачу и оставьте свои комментарий, если Вы скачали Моцзинь: Долина червя через торрент бесплатно! Внесите свою лепту в развитие PiratBit!
    Комментировать посты могут только пользователи прошедшие не сложную регистрацию
    Показать сообщения:    

    Моцзинь: Долина червя через торрент
    Скачать бесплатно Моцзинь: Долина червя
    Моцзинь: Долина червя скачать торрент
    Моцзинь: Долина червя смотреть онлайн
    Cкачать фильм Моцзинь: Долина червя бесплатно
    Моцзинь: Долина червя скачать торрент в хорошем качестве
    Моцзинь: Долина червя смотреть онлайн бесплатно в хорошем качестве


    Вы не можете начинать темы
    Вы не можете отвечать на сообщения
    Вы не можете редактировать свои сообщения
    Вы не можете удалять свои сообщения
    Вы не можете голосовать в опросах
    Вы не можете прикреплять файлы к сообщениям
    Вы можете скачивать файлы