Ссылка на приватное зеркало всего за 1$. Внимание количество ограничено!!!

OK

1+1

iTunes

мы

OK

1

WEB-DLRip

Джокер

Пифагор

Ведьмак / The Witcher сериал

Лицензия

ПШазам

ОК

Оно 2

iTunes

30
pack

Вам бонус

ВАЖНО

!!Акция!!

Alien_RageХит недели

RePack

Resident Evil 21

ИГРА 18+

pack

RePack

jed

RePack

fifa19

RePack

Assassins Creed: Odyssey

RePack

NEED FOR SPEED™ PAYBACK

4 сезон

9 сезон

Бесстыжие 9 сезон

Все сериалы

все сериалы на PB.wtf

RePack

FAR CRY 5
  

Добро пожаловать в ад / Welcome to Hell (Тони Ньютон, Сам Майсон-Белл, Майкл Агиар) [2018, Ужасы, WEB-DL 720p] MVO ["Синема УС"] pb.wtf

Добро пожаловать в ад через торрент pb.wtf

Размер: 3.58 GB | Добавлен: 11 мес. назад | Торрент скачан:67 раз
Скачать  

06-02-2019 13:50 Добро пожаловать в ад Скачать торрент  

Добро пожаловать в ад / Welcome to Hell Год выпуска: 2018
Страна: Великобритания
Жанр: Ужасы
Продолжительность: 01:34:09
Перевод: Любительский (многоголосый) | "Синема УС"
Субтитры: отсутствуют

Режиссер: Тони Ньютон, Сам Майсон-Белл, Майкл Агиар

rating

В ролях:

Билл Оберст мл., Калико Купер, Николас Адам Кларк, Фелисса Роуз, Кевин Калибер, Тиффани Фест, Джоэль Остин, Саймон Берри, Изабель Билтон, Марв Бловелт

Описание:

Киноальманах из нескольких коротких новелл, созданных чтобы удивлять, шокировать, приводить в ужас и развлекать аудиторию.

Качество: WEB-DL 720p
Формат: MKV

Видео: h.264,5 059 kb/s, 1280x720
Аудио#1: Русский, (AC3, 2 ch, 384 Кбит/с)
скриншот  скриншот  скриншот  

Общее
Уникальный идентификатор : 198724878589619130266590247233023444101 (0x958104F9D38734E1883416A7BC2D0485)
Полное имя : E:\торреннты\Welcome.to.Hell.2018.P.WEB-DL.72Op_KOSHARA.mkv
Формат : Matroska
Версия формата : Version 2
Размер файла : 3,58 Гбайт
Продолжительность : 1 ч. 34 м.
Режим общего битрейта : Переменный
Общий поток : 5445 Кбит/сек
Дата кодирования : UTC 2019-02-04 13:36:49
Программа кодирования : mkvmerge v8.3.0 ('Over the Horizon') 64bit
Библиотека кодирования : libebml v1.3.1 + libmatroska v1.4.2

Видео
Идентификатор : 1
Формат : AVC
Формат/Информация : Advanced Video Codec
Профиль формата : High@L4.1
Настройки формата : CABAC / 4 Ref Frames
Параметр CABAC формата : Да
Параметр RefFrames формата : 4 кадра
Идентификатор кодека : V_MPEG4/ISO/AVC
Продолжительность : 1 ч. 34 м.
Вид битрейта : Переменный
Битрейт : 5059 Кбит/сек
Максимальный битрейт : 6000 Кбит/сек
Ширина : 1280 пикселей
Высота : 720 пикселей
Соотношение сторон : 16:9
Режим частоты кадров : Постоянный
Частота кадров : 23,976 (24000/1001) кадра/сек
Стандарт вещания : Component
Цветовое пространство : YUV
Субдискретизация насыщенности : 4:2:0
Битовая глубина : 8 бит
Тип развёртки : Прогрессивная
Бит/(Пиксели*Кадры) : 0.224
Размер потока : 3,26 Гбайт (91%)
Default : Да
Forced : Нет
Цветовой диапазон : Limited
Основные цвета : BT.709
Характеристики трансфера : BT.709
Коэффициенты матрицы : BT.709

Аудио
Идентификатор : 2
Формат : AC-3
Формат/Информация : Audio Coding 3
Идентификатор кодека : A_AC3
Продолжительность : 1 ч. 34 м.
Вид битрейта : Постоянный
Битрейт : 384 Кбит/сек
Каналы : 2 канала
Расположение каналов : Front: L R
Частота : 48,0 КГц
Частота кадров : 31,250 кадров/сек (1536 SPF)
Битовая глубина : 16 бит
Метод сжатия : С потерями
Размер потока : 259 Мбайт (7%)
ServiceKind/String : Complete Main
Default : Да
Forced : Нет

pb.wtf



Скачать Добро пожаловать в ад через торрент https://a.radikal.ru/a14/1902/41/b11f6e3cdfa1.jpg Скачать фильм Добро пожаловать в ад через торрент бесплантно в хорошем качестве Описание: Киноальманах из нескольких коротких новелл, созданных чтобы удивлять, шокировать, приводить в ужас и развлекать ... 10 10 4
Торрент: Зарегистрирован [2019-02-06 13:50] · скачан: 67 раз
Статус: T временная
Размер: 3.58 GB
Как cкачать? Как скачать Добро пожаловать в ад через торрент | qTorrent

% Раздел Тема Автор DL S | L
T Фильмы (мультфильмы) cо спонсором показа (Новинки AVI/MKV) [ 1.37 GB ] Добро пожаловать в ад / Welcome to Hell [2018 WEB-DLRip] MVO ["Синема УС"] bober100 Скачать
2 | 0

28-11-2019 20:33  

Отключить всю рекламу на сайте

06-02-2019 13:58 Добро пожаловать в ад Скачать торрент  

про засратов кино??pb.wtf



    Дорогой пользователь! Огромная просьба, поблагодарите релизера, оцените раздачу и оставьте свои комментарий, если Вы скачали Добро пожаловать в ад через торрент бесплатно! Внесите свою лепту в развитие PiratBit!
    Комментировать посты могут только пользователи прошедшие не сложную регистрацию
    Показать сообщения:    

    Добро пожаловать в ад через торрент
    Скачать бесплатно Добро пожаловать в ад
    Добро пожаловать в ад скачать торрент
    Добро пожаловать в ад смотреть онлайн
    Cкачать фильм Добро пожаловать в ад бесплатно
    Добро пожаловать в ад скачать торрент в хорошем качестве
    Добро пожаловать в ад смотреть онлайн бесплатно в хорошем качестве


    Вы не можете начинать темы
    Вы не можете отвечать на сообщения
    Вы не можете редактировать свои сообщения
    Вы не можете удалять свои сообщения
    Вы не можете голосовать в опросах
    Вы не можете прикреплять файлы к сообщениям
    Вы можете скачивать файлы