Marvel's Avengers Deluxe Edition (супер цена) 159р. Внимание количество ограничено!!!

2 сезон

iTunes

iTunes

1

iTunes

iTunes

iTunes

WEBRip

iTunes

30
pack

Новость дня

ВАЖНО

!!Акция!!

Alien_RageХит недели

RePack

Horizon Zero Dawn

ИГРА 18+

pack

RePack

jed

!!Акция!!

Alien_Rage

RePack

fifa19

RePack

Assassins Creed: Odyssey

RePack

NEED FOR SPEED™ PAYBACK

4 сезон

9 сезон

Бесстыжие 9 сезон

Все сериалы

все сериалы на PB.wtf

RePack

FAR CRY 5
  

Тайна 101 / Mystery 101 (Блэр Хэйес) [2019 г., Криминал, Детектив, HDTVRip, Любительский (многоголосый)(Синема УС)] pb.wtf

Тайна 101 через торрент pb.wtf

Размер: 1.31 GB | Добавлен: 1 год 7 мес. назад | Торрент скачан:193 раза
Скачать  

06-02-2019 17:43 Тайна 101 Скачать торрент  

Тайна 101 / Mystery 101
Год выпуска: 2019
Страна: Канада
Жанр: Криминал, Детектив
Продолжительность: 01:24:02
Перевод: Любительский (многоголосый)(Синема УС)
Субтитры: Отсутствуют

Режиссер: Блэр Хэйес

rating

В ролях: Джилл Вагнер, Кристоффер Полаха, Ларисса Альбукерке, Тоска Баггу, Иэн Белчер, Лоссен Чэмберс, Сара Дагдэйл, Мэттью Харрисон и др.

Описание: Эми Уинслоу преподает мистическую беллетристику в колледже, где она является профессором, но теперь вокруг нее разгораются настоящие преступления и настоящие загадки, с кражей очень ценного лабораторного образца, убийством, исчезновением студента и, якобы, очевидным самоубийством. Детектив Трэвис Коул из местной полиции проводит расследование и профессор Уинслоу полна решимости помочь. Ее острая наблюдательность и дедуктивные способности, могут сильно помочь следствию, если детектив Коул поверит в них.

Доп. информация: Присутствуют вставки голосовой и текстовой рекламы

Качество: HDTVRip
Формат: AVI
Видео кодек: XviD
Аудио кодек: AC3
Видео: Xvid, 720x400, ~1838 Kbps
Аудио#1: AC3, 2 ch, 384 Kbps
скриншот   скриншот   скриншот   скриншот  

Общее
Полное имя : D:\CD\Тайна 101 (Криминал-Детектив) (2019) HDTVRip\Тайна 101 (Детектив) (2019) HDTVRip.avi
Формат : AVI
Формат/Информация : Audio Video Interleave
Размер файла : 1,31 Гбайт
Продолжительность : 1 ч. 24 м.
Общий поток : 2231 Кбит/сек
Программа кодирования : VirtualDubMod 1.5.10.2 (build 2540/release)
Библиотека кодирования : VirtualDub build 35576/release

Видео
Идентификатор : 0
Формат : MPEG-4 Visual
Профиль формата : Advanced Simple@L5
Настройки формата : BVOP2 / Custom Matrix
Параметр BVOP формата : 2
Параметр QPel формата : Нет
Параметр GMC формата : Без точки перехода
Параметр матрицы формата : Выборочная
Идентификатор кодека : XVID
Идентификатор кодека/Подсказка : XviD
Продолжительность : 1 ч. 24 м.
Битрейт : 1838 Кбит/сек
Ширина : 720 пикселей
Высота : 400 пикселей
Соотношение сторон : 16:9
Частота кадров : 23,976 (24000/1001) кадра/сек
Цветовое пространство : YUV
Субдискретизация насыщенности : 4:2:0
Битовая глубина : 8 бит
Тип развёртки : Прогрессивная
Метод сжатия : С потерями
Бит/(Пиксели*Кадры) : 0.266
Размер потока : 1,08 Гбайт (82%)
Библиотека кодирования : XviD 1.2.1 (UTC 2008-12-04)

Аудио
Идентификатор : 1
Формат : AC-3
Формат/Информация : Audio Coding 3
Коммерческое название : Dolby Digital
Идентификатор кодека : 2000
Продолжительность : 1 ч. 24 м.
Вид битрейта : Постоянный
Битрейт : 384 Кбит/сек
Каналы : 2 канала
Channel layout : L R
Частота : 48,0 КГц
Частота кадров : 31,250 кадров/сек (1536 SPF)
Битовая глубина : 16 бит
Метод сжатия : С потерями
Задержка видео : 4 мс.
Размер потока : 231 Мбайт (17%)
Выравнивание : Разделение по промежуткам
Продолжительность промежутка : 42 мс. (1,00 видеокадр)
Время предзагрузки промежутка : 500 мс.
ServiceKind/String : Complete Main

pb.wtf



Скачать Тайна 101 через торрент http://pic1.kartinco.top/images/12/jcae2.jpg Скачать фильм Тайна 101 через торрент бесплантно в хорошем качестве Описание: Эми Уинслоу преподает мистическую беллетристику в колледже, где она является профессором, но теперь вокруг нее разгораются ... 10 10 4
Торрент: Зарегистрирован [2019-02-06 17:43] · скачан: 193 раз
Статус: T временная
Размер: 1.31 GB
Как cкачать? Как скачать Тайна 101 через торрент | qTorrent

28-11-2019 20:33  

Отключить всю рекламу на сайте

    Дорогой пользователь! Огромная просьба, поблагодарите релизера, оцените раздачу и оставьте свои комментарий, если Вы скачали Тайна 101 через торрент бесплатно! Внесите свою лепту в развитие PiratBit!
    Комментировать посты могут только пользователи прошедшие не сложную регистрацию
    Показать сообщения:    

    Тайна 101 через торрент
    Скачать бесплатно Тайна 101
    Тайна 101 скачать торрент
    Тайна 101 смотреть онлайн
    Cкачать фильм Тайна 101 бесплатно
    Тайна 101 скачать торрент в хорошем качестве
    Тайна 101 смотреть онлайн бесплатно в хорошем качестве


    Вы не можете начинать темы
    Вы не можете отвечать на сообщения
    Вы не можете редактировать свои сообщения
    Вы не можете удалять свои сообщения
    Вы не можете голосовать в опросах
    Вы не можете прикреплять файлы к сообщениям
    Вы можете скачивать файлы