новый адрес пиратбит piratbit
Мега распродажа FORZA HORIZON 4 ULTIMATE+ВСЕ DLC+ОНЛАЙН всего за 499р. 349 руб. (супер цена). Внимание количество ограничено!!!

iTunes

1+1

iTunes

мы

iTunes

1

iTunes

Чернобыль

iTunes

Ральф против интернета

Лицензия

ПШазам

Лицензия

Игра престолов

Лицензия

30
pack

ВАЖНО

!!Акция!!

Alien_RageХит недели

RePack

Resident Evil 21

ИГРА 18+

pack

RePack

Metro:Exodus

!!Акция!!

Alien_Rage

RePack

fifa19

RePack

Assassins Creed: Odyssey

RePack

NEED FOR SPEED™ PAYBACK

3 сезон

9 сезон

Бесстыжие 9 сезон

Все сериалы

все сериалы на PB.wtf

RePack

FAR CRY 5
Ребята, катастрофически не хватает 1900р. для оплаты серверов за Октябрь (всвязи с блокировками трафик упал в 3 раза), 1-2р., выручайте.
  

Человек, который удивил всех (Наташа Меркулова, Алексей Чупов) [2018 г., драма, WEBRip] pb.wtf

Человек, который удивил всех через торрент pb.wtf

Раздают: 5 [ 0 KB/s ]
Размер: 1.46 GB | Добавлен: 9 мес. назад | Торрент скачан:585 раз
Скачать  

06-02-2019 18:01 Человек, который удивил всех Скачать торрент  

Человек который удивил всех

Год выпуска: 2018
Страна: Россия, Эстония, Франция
Жанр: драма
Продолжительность: 01:44:08
Перевод: Не требуется (Русский)
Субтитры: Отсутствуют

Режиссер: Наташа Меркулова, Алексей Чупов

Премьера в мире: 4 сентября 2018

rating

В ролях: Евгений Цыганов, Наталья Кудряшова, Юрий Кузнецов, Павел Майков, Василий Попов, Алексей Филимонов, Елена Ворончихина, Максим Виторган, Амаду Мамадаков, Тимофей Зайцев

Описание: Сибирский егерь Егор — образцовый семьянин и уважаемый в своем поселке человек. Они с женой Натальей ждут второго ребенка. Неожиданно Егор узнает, что неизлечимо болен, и что жить ему осталось два месяца. В борьбе с болезнью не помогают ни традиционная медицина, ни шаманское колдовство, и в конце концов Егор решается на отчаянный шаг — пытается полностью изменить свою личность, чтобы обмануть приближающуюся смерть, как это сделал легендарный селезень Жамба, герой древнего сибирского эпоса.

Качество: WEBRip
Формат: AVI
Видео кодек: XviD
Аудио кодек: AC3
Видео: 720x304 (2.37:1), 24.000 fps, XviD build 67 ~1805 kbps avg, 0.34 bit/pixel
Аудио: 48 kHz, AC3 Dolby Digital, 2/0 (L,R) ch, ~192 kbps avg






Формат : AVI
Формат/Информация : Audio Video Interleave
Размер файла : 1,46 Гбайт
Продолжительность : 1 ч. 44 м.
Общий поток : 2007 Кбит/сек
Программа кодирования : VirtualDubMod 1.5.10.3 | www.virtualdub-fr.org || (build 2550/release)
Библиотека кодирования : VirtualDubMod build 2550/release

Видео
Идентификатор : 0
Формат : MPEG-4 Visual
Профиль формата : Advanced Simple@L5
Параметр BVOP формата : 1
Параметр QPel формата : Нет
Параметр GMC формата : Без точки перехода
Параметр матрицы формата : Выборочная
Идентификатор кодека : XVID
Идентификатор кодека/Подсказка : XviD
Продолжительность : 1 ч. 44 м.
Битрейт : 1806 Кбит/сек
Ширина : 720 пикселей
Высота : 304 пикселя
Соотношение сторон : 2,35:1
Частота кадров : 24,000 кадра/сек
Цветовое пространство : YUV
Субдискретизация насыщенности : 4:2:0
Битовая глубина : 8 бит
Тип развёртки : Прогрессивная
Метод сжатия : С потерями
Бит/(Пиксели*Кадры) : 0.344
Размер потока : 1,31 Гбайт (90%)
Библиотека кодирования : XviD 67

Аудио
Идентификатор : 1
Формат : AC-3
Формат/Информация : Audio Coding 3
Расширение режима : CM (complete main)
Параметр Endianness формата : Big
Идентификатор кодека : 2000
Продолжительность : 1 ч. 44 м.
Вид битрейта : Постоянный
Битрейт : 192 Кбит/сек
Каналы : 2 канала
Расположение каналов : Front: L R
Частота : 48,0 КГц
Битовая глубина : 16 бит
Метод сжатия : С потерями
Размер потока : 143 Мбайт (10%)
Выравнивание : Разделение по промежуткам
Продолжительность промежутка : 42 мс. (1,00 видеокадр)
Время предзагрузки промежутка : 500 мс.

pb.wtf



Скачать Человек, который удивил всех через торрент https://i1.imageban.ru/out/2019/02/06/c76791c076b5e5a27573e18ca8c99bc0.jpg Скачать фильм Человек, который удивил всех через торрент бесплантно в хорошем качестве Описание: Сибирский егерь Егор — образцовый семьянин и уважаемый в своем поселке человек. Они с женой Натальей ждут второго ребенка. ... 8.7 10 21
Торрент: Зарегистрирован [2019-02-06 18:01] · скачан: 585 раз
Статус: T временная
Размер: 1.46 GB
Как cкачать? Как скачать Человек, который удивил всех через торрент | qTorrent


>> Регистрируемся здесь <<






Отзывы и комментарии о схеме читаем и пишем здесь: ---> Отзывы и комментарии о схеме

Новые благодарочки в телеграм довольных пользователей:
скриншот   скриншот   скриншот   скриншот   скриншот

06-02-2019 23:37 Человек, который удивил всех Скачать торрент  

Опять артхаус. Зачем я это посмотрел.pb.wtf



20-03-2019 21:05 Человек, который удивил всех Скачать торрент  

Плод воспаленного мозга...pb.wtf



05-07-2019 15:29 Человек, который удивил всех Скачать торрент  

Пропаганда педерастии, но только уже русскими - это печально ((
пс. Модераторы, слово "педераст" это медицинский термин, а не мат. И гомосеки - это моральная деградация, а не половое самоопределение. Они имеют право быть, но у себя дома, а не в качестве пропаганды.pb.wtf



    Дорогой пользователь! Огромная просьба, поблагодарите релизера, оцените раздачу и оставьте свои комментарий, если Вы скачали Человек, который удивил всех через торрент бесплатно! Внесите свою лепту в развитие PiratBit!
    Комментировать посты могут только пользователи прошедшие не сложную регистрацию
    Показать сообщения:    

    Человек, который удивил всех через торрент
    Скачать бесплатно Человек, который удивил всех
    Человек, который удивил всех скачать торрент
    Человек, который удивил всех смотреть онлайн
    Cкачать фильм Человек, который удивил всех бесплатно
    Человек, который удивил всех скачать торрент в хорошем качестве
    Человек, который удивил всех смотреть онлайн бесплатно в хорошем качестве


    Вы не можете начинать темы
    Вы не можете отвечать на сообщения
    Вы не можете редактировать свои сообщения
    Вы не можете удалять свои сообщения
    Вы не можете голосовать в опросах
    Вы не можете прикреплять файлы к сообщениям
    Вы можете скачивать файлы