1 сезон

1 сезон

iTunes

1

КиноПоиск HD

Кинопоиск HD

iTunes

13

1 сезон

RePack

30

Ultimate

ВАЖНО

ИГРА 18+

pack

RePack

MK11
pack

Легкие деньги

RePack

jed

RePack

fifa19

RePack

RDR2

RePack

NEED FOR SPEED™ PAYBACK

4 сезон

9 сезон

Бесстыжие 9 сезон

Все сериалы

все сериалы на PB.wtf

RePack

FAR CRY 5
  
Magnet ссылка

Один в темноте / Alone in the Dark (Уве Болл) [2004 г., ужасы, триллер, фантастика, BDRip AVC] DUB , MVO, DVO, AVO (Карповский) pb.wtf

Один в темноте через торрент pb.wtf

Размер: 3.32 GB | Добавлен: 2 года 2 мес. назад | Торрент скачан:22 раза
Скачать  

06-02-2019 20:06 Один в темноте Скачать торрент  

Один в темноте / Alone in the Dark
«Они ждали тысячелетия...» Год выпуска: 2004

Страна: Канада, Германия, США

Жанр: Ужасы, триллер, фантастика

Продолжительность: 01:39:47

Перевод: Дублированный, профессиональный (многоголосый), профессиональный (двухголосый), авторский (одноголосый)

Субтитры: Русские, английские

Режиссер: Уве Болл

rating

В ролях: Кристиан Слэйтер, Тара Рейд, Стивен Дорфф, Фрэнк С. Тернер, Мэттью Уолкер, Уилл Сэндерсон, Марк Эчесон, Даррен Шалави, Карин Коновал, Крэйг Брунански

Описание: Частный детектив Эдвард Карнби — специалист по паранормальным явлениям, пытаясь найти истинную причину смерти своего друга, сталкивается со множеством необъяснимых загадок. Расследование приводит детектива на «Остров Теней», где Карнби оказывается перед лицом смертельной опасности, грозящей не только ему, но и всему миру. Демоны тьмы жаждут власти над миром. Один Карнби бессилен против нечисти. И тогда к детективу присоединяется его бывшая возлюбленная Эйлин, гениальный учёный-антрополог с фантастической памятью, очаровательное юное создание. Но главная опасность впереди — встреча с коварной царицей, злым духом, способным незаметно подчинить себе душу и тело любого смертного.
Качество: BDRip AVC
Формат: MKV
Видео кодек: MPEG-4 AVC
Аудио кодек: AC3
Видео: MPEG-4 AVC, 3100 Кбит/с, 1024х576
Аудио#1: Русский, AC-3, 6 ch, 384 Кбит/сек - DUB
Аудио#2: Русский, AC-3, 6 ch, 448 Кбит/сек - MVO (R5)
Аудио#3: Русский, AC-3, 2 ch, 192 Кбит/сек - DVO (Tycoon)
Аудио#4: Русский, AC-3, 2 ch, 192 Кбит/сек - AVO (Карповский)
Аудио#5: Английский, AC-3, 6 ch, 448 Кбит/сек
Видео
Идентификатор : 1
Формат : AVC
Формат/Информация : Advanced Video Codec
Профиль формата : High@L4.1
Настройки формата : CABAC / 10 Ref Frames
Параметр CABAC формата : Да
Параметр RefFrames формата : 10 кадров
Идентификатор кодека : V_MPEG4/ISO/AVC
Продолжительность : 1 ч. 39 м.
Битрейт : 3100 Кбит/сек
Ширина : 1024 пикселя
Высота : 576 пикселей
Соотношение сторон : 16:9
Режим частоты кадров : Постоянный
Частота кадров : 23,976 кадра/сек
Цветовое пространство : YUV
Субдискретизация насыщенности : 4:2:0
Битовая глубина : 8 бит
Тип развёртки : Прогрессивная
Бит/(Пиксели*Кадры) : 0.219
Размер потока : 2,10 Гбайт (63%)
Библиотека кодирования : x264 core 130 r2273 b3065e6
Настройки программы : cabac=1 / ref=10 / deblock=1:-3:-2 / analyse=0x3:0x133 / me=umh / subme=11 / psy=1 / psy_rd=1.00:0.20 / mixed_ref=1 / me_range=48 / chroma_me=1 / trellis=2 / 8x8dct=1 / cqm=0 / deadzone=21,11 / fast_pskip=0 / chroma_qp_offset=-3 / threads=6 / lookahead_threads=1 / sliced_threads=0 / nr=0 / decimate=0 / interlaced=0 / bluray_compat=0 / constrained_intra=0 / bframes=8 / b_pyramid=2 / b_adapt=2 / b_bias=0 / direct=3 / weightb=1 / open_gop=0 / weightp=2 / keyint=240 / keyint_min=23 / scenecut=40 / intra_refresh=0 / rc=2pass / mbtree=0 / bitrate=3100 / ratetol=1.0 / qcomp=0.60 / qpmin=0 / qpmax=69 / qpstep=4 / cplxblur=20.0 / qblur=0.5 / ip_ratio=1.40 / pb_ratio=1.30 / aq=1:1.00
Язык : English
Default : Да
Forced : Нет

Аудио #1
Идентификатор : 2
Формат : AC-3
Формат/Информация : Audio Coding 3
Коммерческое название : Dolby Digital
Идентификатор кодека : A_AC3
Продолжительность : 1 ч. 39 м.
Вид битрейта : Постоянный
Битрейт : 384 Кбит/сек
Каналы : 6 каналов
Channel layout : L R C LFE Ls Rs
Частота : 48,0 КГц
Частота кадров : 31,250 кадров/сек (1536 SPF)
Битовая глубина : 16 бит
Метод сжатия : С потерями
Размер потока : 274 Мбайт (8%)
Заголовок : Дубляж
Язык : Russian
ServiceKind/String : Complete Main
Default : Да
Forced : Нет

Аудио #2
Идентификатор : 3
Формат : AC-3
Формат/Информация : Audio Coding 3
Коммерческое название : Dolby Digital
Идентификатор кодека : A_AC3
Продолжительность : 1 ч. 39 м.
Вид битрейта : Постоянный
Битрейт : 448 Кбит/сек
Каналы : 6 каналов
Channel layout : L R C LFE Ls Rs
Частота : 48,0 КГц
Частота кадров : 31,250 кадров/сек (1536 SPF)
Битовая глубина : 16 бит
Метод сжатия : С потерями
Размер потока : 320 Мбайт (9%)
Заголовок : Многоголосый (R5)
Язык : Russian
ServiceKind/String : Complete Main
Default : Нет
Forced : Нет

Аудио #3
Идентификатор : 4
Формат : AC-3
Формат/Информация : Audio Coding 3
Коммерческое название : Dolby Digital
Идентификатор кодека : A_AC3
Продолжительность : 1 ч. 39 м.
Вид битрейта : Постоянный
Битрейт : 192 Кбит/сек
Каналы : 2 канала
Channel layout : L R
Частота : 48,0 КГц
Частота кадров : 31,250 кадров/сек (1536 SPF)
Битовая глубина : 16 бит
Метод сжатия : С потерями
Размер потока : 137 Мбайт (4%)
Заголовок : Двухголосый (Tycoon)
Язык : Russian
ServiceKind/String : Complete Main
Default : Нет
Forced : Нет

Аудио #4
Идентификатор : 5
Формат : AC-3
Формат/Информация : Audio Coding 3
Коммерческое название : Dolby Digital
Идентификатор кодека : A_AC3
Продолжительность : 1 ч. 39 м.
Вид битрейта : Постоянный
Битрейт : 192 Кбит/сек
Каналы : 2 канала
Channel layout : L R
Частота : 48,0 КГц
Частота кадров : 31,250 кадров/сек (1536 SPF)
Битовая глубина : 16 бит
Метод сжатия : С потерями
Размер потока : 137 Мбайт (4%)
Заголовок : Карповский
Язык : Russian
ServiceKind/String : Complete Main
Default : Нет
Forced : Нет

Аудио #5
Идентификатор : 6
Формат : AC-3
Формат/Информация : Audio Coding 3
Коммерческое название : Dolby Digital
Идентификатор кодека : A_AC3
Продолжительность : 1 ч. 39 м.
Вид битрейта : Постоянный
Битрейт : 448 Кбит/сек
Каналы : 6 каналов
Channel layout : L R C LFE Ls Rs
Частота : 48,0 КГц
Частота кадров : 31,250 кадров/сек (1536 SPF)
Битовая глубина : 16 бит
Метод сжатия : С потерями
Размер потока : 320 Мбайт (9%)
Язык : English
ServiceKind/String : Complete Main
Default : Нет
Forced : Нет

Текст #1
Идентификатор : 7
Формат : UTF-8
Идентификатор кодека : S_TEXT/UTF8
Идентификатор кодека/Информация : UTF-8 Plain Text
Заголовок : Forced
Язык : Russian
Default : Да
Forced : Нет

Текст #2
Идентификатор : 8
Формат : UTF-8
Идентификатор кодека : S_TEXT/UTF8
Идентификатор кодека/Информация : UTF-8 Plain Text
Заголовок : Full
Язык : Russian
Default : Нет
Forced : Нет

Текст #3
Идентификатор : 9
Формат : UTF-8
Идентификатор кодека : S_TEXT/UTF8
Идентификатор кодека/Информация : UTF-8 Plain Text
Заголовок : Full
Язык : English
Default : Нет
Forced : Нет

Меню
00:00:00.000 : :Chapter 01
00:04:13.962 : :Chapter 02
00:12:23.492 : :Chapter 03
00:21:51.643 : :Chapter 04
00:28:20.115 : :Chapter 05
00:34:52.090 : :Chapter 06
00:42:40.975 : :Chapter 07
00:48:04.631 : :Chapter 08
00:56:00.690 : :Chapter 09
01:03:37.313 : :Chapter 10
01:10:48.953 : :Chapter 11
01:18:18.777 : :Chapter 12
01:24:55.256 : :Chapter 13
01:29:32.200 : :Chapter 14
01:31:59.931 : :Chapter 15

скриншот   скриншот   скриншот   скриншот   скриншот  

pb.wtf



Скачать Один в темноте через торрент https://pic1.kartinco.top/images/12/ju4nf.jpg Скачать фильм Один в темноте через торрент бесплантно в хорошем качестве Описание: Частный детектив Эдвард Карнби — специалист по паранормальным явлениям, пытаясь найти истинную причину смерти своего друга, ... 10 10 3
Торрент: Зарегистрирован [2019-02-06 20:06] · скачан: 22 раз
Статус: √ проверено
Размер: 3.32 GB
Как cкачать? Как скачать Один в темноте через торрент | UTorrent

% Раздел Тема Автор DL S | L
Фильмы 2009 [ 1.37 GB ] Один в темноте 2 / Alone in the Dark 2 [2009 DVDRip] Anonymous Скачать
1 | 0
Фильмы (DVD фильмы) [ 6.78 GB ] Один в темноте 2 / Alone in the Dark II [2008 DVD9] paul08 Скачать
1 | 0

28-11-2019 20:33  

Отключить всю рекламу на сайте

07-02-2019 13:38 Один в темноте Скачать торрент  

Уебол иногда занятный трешачок снимает pb.wtf



    Дорогой пользователь! Огромная просьба, поблагодарите релизера, оцените раздачу и оставьте свои комментарий, если Вы скачали Один в темноте через торрент бесплатно! Внесите свою лепту в развитие PiratBit!
    Комментировать посты могут только пользователи прошедшие не сложную регистрацию
    Показать сообщения:    

    Один в темноте через торрент
    Скачать бесплатно Один в темноте
    Один в темноте скачать торрент
    Один в темноте смотреть онлайн
    Cкачать фильм Один в темноте бесплатно
    Один в темноте скачать торрент в хорошем качестве
    Один в темноте смотреть онлайн бесплатно в хорошем качестве


    Вы не можете начинать темы
    Вы не можете отвечать на сообщения
    Вы не можете редактировать свои сообщения
    Вы не можете удалять свои сообщения
    Вы не можете голосовать в опросах
    Вы не можете прикреплять файлы к сообщениям
    Вы можете скачивать файлы