Ссылка на приватное зеркало всего за 1$. Внимание количество ограничено!!!

iTunes

iTunes

iTunes

1

iTunes

iTunes

iTunes

iTunes

iTunes

30
pack

$ от Little Big

ВАЖНО

!!Акция!!

Alien_RageХит недели

RePack

Resident Evil 21

ИГРА 18+

pack

RePack

jed

!!Акция!!

Alien_Rage

RePack

fifa19

RePack

Assassins Creed: Odyssey

RePack

NEED FOR SPEED™ PAYBACK

4 сезон

9 сезон

Бесстыжие 9 сезон

Все сериалы

все сериалы на PB.wtf

RePack

FAR CRY 5
  

Ничего хорошего в отеле «Эль рояль» / Bad Times at the El Royale (Дрю Годдард) [2018, триллер, драма, криминал, BDRip 1080p] DUB (rus, ukr) [Лицензия] + MVO [HDRezka Studio] + AVO [Яроцкий] pb.wtf

Ничего хорошего в отеле «Эль рояль» через торрент pb.wtf

Размер: 15.35 GB | Добавлен: 1 год 5 мес. назад | Торрент скачан:127 раз
Скачать  

07-02-2019 01:51 Ничего хорошего в отеле «Эль рояль» Скачать торрент  

Ничего хорошего в отеле «Эль рояль» / Bad Times at the El Royale


Год выпуска: 2018
Страна: США
Жанр: триллер, драма, криминал, детектив
Продолжительность: 02:21:37
Перевод: Дублированный, профессиональный многоголосый, авторский
Субтитры: Русские, Украинские, Английские
Режиссер: Дрю Годдард
В ролях:

Джефф Бриджес (Father Daniel Flynn / Dock O'Kelly), Синтиа Эриво (Darlene Sweet), Дакота Джонсон (Emily Summerspring), Джон Хэмм (Laramie Seymour Sullivan / Dwight Broadbeck), Крис Хемсворт (Billy Lee), Кэйли Спэни (Rose Summerspring), Льюис Пуллман (Miles Miller), Ник Офферман (Felix O'Kelly), Ксавье Долан (Buddy Sunday), Шей Уигэм (Dr. Woodbury Laurence), Марк О’Брайэн (Larsen Rogers), Чарльз Халфорд (Sammy Wilds)
Описание:
Семь незнакомцев, у каждого из которых есть своя тайна, встречаются в заброшенном отеле «Эль Рояль» на озере Тахо. И этой ночью у каждого будет шанс на искупление... прежде чем всё пойдет к чертям.
Рейтинг:

MPAA: R - Лицам до 17 лет обязательно присутствие взрослого
Качество: BDRip 1080p
Формат: MKV
Видео: MPEG-4 AVC, 10000 Кбит/с, 1920x804, 23.976 Кадр/с
Аудио #01: 48 kHz, DTS, 5.1, 768 Kbps | Дублированный Blu ray eur | RUS |
Аудио #02: 48 kHz, AC3, 5.1, 448 Kbps | Дублированный Blu ray eur | RUS |
Аудио #03: 48 kHz, AC3, 5.1, 640 Kbps | Aвторский Яроцкий | RUS |
Аудио #04: 48 kHz, DTS, 5.1, 1510 Kbps | Aвторский Яроцкий | RUS |
Аудио #05: 48 kHz, AC3, 2ch, 192 Kbps | Mногоголоска HDRezka Studio | RUS |
Аудио #06: 48 kHz, AC3, 5.1, 448 Kbps | Дублированный Blu ray eur | UKR |
Аудио #07: 48 kHz, DTS, 5.1, 1510 Kbps | Оригинал | ENG |
Навигация по главам: есть
General
Unique ID : 48694849187823338316136350296283263026 (0x24A2496CF56102DB6ED3814A1CABB032)
Complete name : F:\Bad.Times.at.the.El.Royale.2018.bdriP.108Op.werecut.PROD.mkv
Format : Matroska
Format version : Version 4
File size : 15.3 GiB
Duration : 2 h 21 min
Overall bit rate : 15.5 Mb/s
Movie name : Bad Times at the El Royale 2018 OT werecut PROD.
Encoded date : UTC 2019-02-07 00:35:29
Writing application : mkvmerge v24.0.0 ('Beyond The Pale') 64-bit
Writing library : libebml v1.3.6 + libmatroska v1.4.9

Video
ID : 1
Format : AVC
Format/Info : Advanced Video Codec
Format profile : High@L4.1
Format settings : CABAC / 5 Ref Frames
Format settings, CABAC : Yes
Format settings, ReFrames : 5 frames
Codec ID : V_MPEG4/ISO/AVC
Duration : 2 h 21 min
Bit rate : 10 000 kb/s
Width : 1 920 pixels
Height : 804 pixels
Display aspect ratio : 2.40:1
Frame rate mode : Constant
Frame rate : 23.976 (24000/1001) FPS
Color space : YUV
Chroma subsampling : 4:2:0
Bit depth : 8 bits
Scan type : Progressive
Bits/(Pixel*Frame) : 0.270
Stream size : 9.89 GiB (64%)
Title : WiKi
Writing library : x264 core 130 r2273 b3065e6
Encoding settings : cabac=1 / ref=5 / deblock=1:-3:-3 / analyse=0x3:0x113 / me=umh / subme=11 / psy=1 / psy_rd=1.00:0.00 / mixed_ref=1 / me_range=32 / chroma_me=1 / trellis=2 / 8x8dct=1 / cqm=0 / deadzone=21,11 / fast_pskip=0 / chroma_qp_offset=-4 / threads=12 / lookahead_threads=2 / sliced_threads=0 / nr=0 / decimate=0 / interlaced=0 / bluray_compat=0 / constrained_intra=0 / bframes=8 / b_pyramid=2 / b_adapt=2 / b_bias=0 / direct=3 / weightb=1 / open_gop=0 / weightp=2 / keyint=250 / keyint_min=23 / scenecut=40 / intra_refresh=0 / rc_lookahead=85 / rc=2pass / mbtree=1 / bitrate=10000 / ratetol=1.0 / qcomp=0.60 / qpmin=0 / qpmax=69 / qpstep=4 / cplxblur=20.0 / qblur=0.5 / ip_ratio=1.40 / aq=1:0.80
Language : English
Default : Yes
Forced : No

Audio #1
ID : 2
Format : DTS
Format/Info : Digital Theater Systems
Codec ID : A_DTS
Duration : 2 h 21 min
Bit rate mode : Constant
Bit rate : 768 kb/s
Channel(s) : 6 channels
Channel layout : C L R Ls Rs LFE
Sampling rate : 48.0 kHz
Frame rate : 93.750 FPS (512 SPF)
Bit depth : 24 bits
Compression mode : Lossy
Stream size : 778 MiB (5%)
Title : blu ray eur
Language : Russian
Default : Yes
Forced : No

Audio #2
ID : 3
Format : AC-3
Format/Info : Audio Coding 3
Commercial name : Dolby Digital
Codec ID : A_AC3
Duration : 2 h 21 min
Bit rate mode : Constant
Bit rate : 448 kb/s
Channel(s) : 6 channels
Channel layout : L R C LFE Ls Rs
Sampling rate : 48.0 kHz
Frame rate : 31.250 FPS (1536 SPF)
Bit depth : 16 bits
Compression mode : Lossy
Stream size : 454 MiB (3%)
Title : blu ray eur
Language : Russian
Service kind : Complete Main
Default : No
Forced : No

Audio #3
ID : 4
Format : AC-3
Format/Info : Audio Coding 3
Commercial name : Dolby Digital
Codec ID : A_AC3
Duration : 2 h 21 min
Bit rate mode : Constant
Bit rate : 640 kb/s
Channel(s) : 6 channels
Channel layout : L R C LFE Ls Rs
Sampling rate : 48.0 kHz
Frame rate : 31.250 FPS (1536 SPF)
Bit depth : 16 bits
Compression mode : Lossy
Stream size : 648 MiB (4%)
Title : avo
Language : Russian
Service kind : Complete Main
Default : No
Forced : No

Audio #4
ID : 5
Format : DTS ES
Format/Info : Digital Theater Systems
Commercial name : DTS-ES Matrix
Codec ID : A_DTS
Duration : 2 h 21 min
Bit rate mode : Constant
Bit rate : 1 509 kb/s
Channel(s) : 6 channels
Channel(s)_Original : 7 channels
Channel layout : C L R Ls Rs Cb LFE
Sampling rate : 48.0 kHz
Frame rate : 93.750 FPS (512 SPF)
Bit depth : 24 bits
Compression mode : Lossy
Stream size : 1.49 GiB (10%)
Title : avo
Language : Russian
Default : No
Forced : No

Audio #5
ID : 6
Format : AC-3
Format/Info : Audio Coding 3
Commercial name : Dolby Digital
Codec ID : A_AC3
Duration : 2 h 21 min
Bit rate mode : Constant
Bit rate : 192 kb/s
Channel(s) : 2 channels
Channel layout : L R
Sampling rate : 48.0 kHz
Frame rate : 31.250 FPS (1536 SPF)
Bit depth : 16 bits
Compression mode : Lossy
Stream size : 194 MiB (1%)
Title : HDREZKA STUDIO
Language : Russian
Service kind : Complete Main
Default : No
Forced : No

Audio #6
ID : 7
Format : AC-3
Format/Info : Audio Coding 3
Commercial name : Dolby Digital
Codec ID : A_AC3
Duration : 2 h 21 min
Bit rate mode : Constant
Bit rate : 448 kb/s
Channel(s) : 6 channels
Channel layout : L R C LFE Ls Rs
Sampling rate : 48.0 kHz
Frame rate : 31.250 FPS (1536 SPF)
Bit depth : 16 bits
Compression mode : Lossy
Stream size : 454 MiB (3%)
Title : blu ray eur
Language : Ukrainian
Service kind : Complete Main
Default : No
Forced : No

Audio #7
ID : 8
Format : DTS ES
Format/Info : Digital Theater Systems
Commercial name : DTS-ES Matrix
Codec ID : A_DTS
Duration : 2 h 21 min
Bit rate mode : Constant
Bit rate : 1 509 kb/s
Channel(s) : 6 channels
Channel(s)_Original : 7 channels
Channel layout : C L R Ls Rs Cb LFE
Sampling rate : 48.0 kHz
Frame rate : 93.750 FPS (512 SPF)
Bit depth : 24 bits
Compression mode : Lossy
Stream size : 1.49 GiB (10%)
Language : English
Default : No
Forced : No

Text #1
ID : 9
Format : UTF-8
Codec ID : S_TEXT/UTF8
Codec ID/Info : UTF-8 Plain Text
Duration : 2 h 17 min
Bit rate : 0 b/s
Count of elements : 11
Stream size : 329 Bytes (0%)
Title : Forced
Language : Russian
Default : Yes
Forced : Yes

Text #2
ID : 10
Format : UTF-8
Codec ID : S_TEXT/UTF8
Codec ID/Info : UTF-8 Plain Text
Duration : 2 h 17 min
Bit rate : 57 b/s
Count of elements : 1316
Stream size : 57.6 KiB (0%)
Language : Russian
Default : No
Forced : No

Text #3
ID : 11
Format : UTF-8
Codec ID : S_TEXT/UTF8
Codec ID/Info : UTF-8 Plain Text
Duration : 2 h 11 min
Bit rate : 0 b/s
Count of elements : 14
Stream size : 525 Bytes (0%)
Title : Forced
Language : Ukrainian
Default : No
Forced : No

Text #4
ID : 12
Format : UTF-8
Codec ID : S_TEXT/UTF8
Codec ID/Info : UTF-8 Plain Text
Duration : 2 h 13 min
Bit rate : 41 b/s
Count of elements : 1467
Stream size : 40.5 KiB (0%)
Language : English
Default : No
Forced : No

Menu
00:00:00.000 : en:Chapter 1
00:04:19.592 : en:Chapter 2
00:19:21.994 : en:Chapter 3
00:34:32.779 : en:Chapter 4
00:49:24.711 : en:Chapter 5
00:51:19.868 : en:Chapter 6
01:16:01.473 : en:Chapter 7
01:37:13.369 : en:Chapter 8
02:03:56.720 : en:Chapter 9
02:14:09.041 : en:Chapter 10
02:15:45.428 : en:Chapter 11
pb.wtf



Скачать Ничего хорошего в отеле «Эль рояль» через торрент https://c.radikal.ru/c41/1902/90/80326b7331cb.png Скачать фильм Ничего хорошего в отеле «Эль рояль» через торрент бесплантно в хорошем качестве Описание: Семь незнакомцев, у каждого из которых есть своя тайна, встречаются в заброшенном отеле «Эль Рояль» на озере Тахо. И этой ночью у ... 9.1 10 7
Торрент: Зарегистрирован [2019-02-07 01:51] · скачан: 127 раз
Статус: √ проверено
Размер: 15.35 GB
Как cкачать? Как скачать Ничего хорошего в отеле «Эль рояль» через торрент | qTorrent

% Раздел Тема Автор DL S | L
Ultra HD (UHD: 2K, 4K, 8K) — видео сверхвысокой чёткости [ 31.2 GB ] Ничего хорошего в отеле «Эль рояль» / Bad Times at the El Royale [2018 UHD BDRip 2160p] [HDR10 sheker187 Скачать
1 | 0
Фильмы (HD 720p, 1080p) (48-60 fps) [ 19.98 GB ] Ничего хорошего в отеле «Эль рояль» / Bad Times at the El Royale [2018 BDRip 1080p 60 fps] sheker187 Скачать
1 | 0
Фильмы 2018 [DVDrip, WEB-DLRip, HDrip] (DUB, MVO) [ 1.46 GB ] Ничего хорошего в отеле «Эль рояль» / Bad Times at the El Royale [2018 BDRip] - [] Twi7ter Скачать
2 | 0
Ultra HD (UHD: 2K, 4K, 8K) — видео сверхвысокой чёткости [ 56.4 GB ] Ничего хорошего в отеле «Эль рояль» / Bad Times at the El Royale [2018 UHD BDRemux 2160p] DUB + MVO + AVO sheker187 Скачать
1 | 0
Фильмы 2018 [DVDrip, WEB-DLRip, HDrip] (DUB, MVO) [ 1.46 GB ] Ничего хорошего в отеле «Эль рояль» / Bad Times at the El Royale [2018 BDRip-AVC] DUB [ BD EUR] Skandar2019 Скачать
1 | 0
Ultra HD (UHD: 2K, 4K, 8K) — видео сверхвысокой чёткости [ 56.41 GB ] Ничего хорошего в отеле «Эль рояль» / Bad Times at the El Royale [2018 UHD Blu-ray 2160p] [HDR10 sheker187 Скачать
1 | 0
Ultra HD (UHD: 2K, 4K, 8K) — видео сверхвысокой чёткости [ 19.85 GB ] Ничего хорошего в отеле «Эль рояль» / Bad Times at the El Royale [2018 UHD BDRip 2160p] DUB [] sheker187 Скачать
1 | 0

28-11-2019 20:33  

Отключить всю рекламу на сайте

09-02-2019 12:57 Ничего хорошего в отеле «Эль рояль» Скачать торрент  

скучно и слабенькоpb.wtf



    Дорогой пользователь! Огромная просьба, поблагодарите релизера, оцените раздачу и оставьте свои комментарий, если Вы скачали Ничего хорошего в отеле «Эль рояль» через торрент бесплатно! Внесите свою лепту в развитие PiratBit!
    Комментировать посты могут только пользователи прошедшие не сложную регистрацию
    Показать сообщения:    

    Ничего хорошего в отеле «Эль рояль» через торрент
    Скачать бесплатно Ничего хорошего в отеле «Эль рояль»
    Ничего хорошего в отеле «Эль рояль» скачать торрент
    Ничего хорошего в отеле «Эль рояль» смотреть онлайн
    Cкачать фильм Ничего хорошего в отеле «Эль рояль» бесплатно
    Ничего хорошего в отеле «Эль рояль» скачать торрент в хорошем качестве
    Ничего хорошего в отеле «Эль рояль» смотреть онлайн бесплатно в хорошем качестве


    Вы не можете начинать темы
    Вы не можете отвечать на сообщения
    Вы не можете редактировать свои сообщения
    Вы не можете удалять свои сообщения
    Вы не можете голосовать в опросах
    Вы не можете прикреплять файлы к сообщениям
    Вы можете скачивать файлы