новый адрес
Ссылка на приватное зеркало всего за 1$. Внимание количество ограничено!!!

iTunes

1+1

iTunes

мы

WEB-DL

1

iTunes

Чернобыль

iTunes

Ральф против интернета

Лицензия

ПШазам

Лицензия

Оно 2

Лицензия

30
pack

Вам бонус

ВАЖНО

!!Акция!!

Alien_RageХит недели

RePack

Resident Evil 21

ИГРА 18+

pack

RePack

jed

!!Акция!!

Alien_Rage

RePack

fifa19

RePack

Assassins Creed: Odyssey

RePack

NEED FOR SPEED™ PAYBACK

3 сезон

9 сезон

Бесстыжие 9 сезон

Все сериалы

все сериалы на PB.wtf

RePack

FAR CRY 5
Ребята, катастрофически не хватает 1900р. для оплаты серверов за Октябрь (всвязи с блокировками трафик упал в 3 раза), 1-2р., выручайте.
  

Ничего хорошего в отеле «Эль рояль» / Bad Times at the El Royale (Дрю Годдард) [2018, триллер, детектив, BDRip-AVC] Dub [Лицензия], MVO [HDRezka] - ExKinoRay pb.wtf

Ничего хорошего в отеле «Эль рояль» через торрент pb.wtf

Раздают: 1 [ 0 KB/s ]
Размер: 3.12 GB | Добавлен: 10 мес. назад | Торрент скачан:90 раз
Скачать  

07-02-2019 03:11 Ничего хорошего в отеле «Эль рояль» Скачать торрент  

Информация о фильме
Название: Ничего хорошего в отеле «Эль рояль»
Оригинальное название: Bad Times at the El Royale
Год выпуска: 2018
Жанр: Триллер, детектив
Режиссер: Дрю Годдард
В ролях: Крис Хемсворт, Дакота Джонсон, Джефф Бриджес, Синтия Эриво, Джон Хэмм, Кэйли Спэни, Льюис Пуллман, Ксавье Долан, Ник Офферман, Шей Уигэм, Кэтрин Изабель, Мэнни Хасинто, Марк О`Брайэн, Чарльз Халфорд, Джим О`Хейр, Джерри Нэйрн, Альвина Аугуст, Джонатан Уайтселл, Софиа Локлин Херт

Описание:
1969 год. Группа разношерстных личностей останавливается на ночь в когда-то популярном отеле «Эль Рояль», расположенном на границе штатов Невада и Калифорния. В здании отеля собрались неприветливый священник, певица Дарлин, энергичный продавец пылесосов и подозрительная девушка с Юга. Вместе с ними ночь в отеле проводит молодой консьерж. Каждому из них есть что скрывать, и у каждого из них будет шанс искупить прошлые грехи. Но ситуация только осложняется, когда в «Эль Рояль» появляется зловещий, но обаятельный лидер культа, желающий получить свое.

rating

Страна: США
Студия: 20th Century Fox Film Corporation
Продолжительность: 02:21:37
Перевод: Дублированный | Лицензия BD EUR
Профессиональный многоголосый HDRezka Studio
Субтитры: Русские (форс., полные), украинские (форс), английские (полные, SDH)

БЕЗ КАКОЙ-ЛИБО РЕКЛАМЫ!

Формат: MKV
Качество: BDRip-AVC
Видео: MPEG-4 AVC, 1024x428 (2.40:1), 23.976 fps, 1620 Kbps, 0.154 bit/pixel
Аудио #01: 48 kHz, AC3, 5.1, 448 Kbps | Дублированный | RUS |
Аудио #02: 48 kHz, AC3, 2.0, 192 Kbps | HDRezka Studio | RUS |
Аудио #03: 48 kHz, AC3, 5.1, 448 Kbps | Дублированный | UKR |
Аудио #04: 48 kHz, AC3, 5.1, 448 Kbps | Оригинал | ENG |
General
Unique ID : 199553155438773611002143645423332647860 (0x96208A2D6D1E4D3886880E04DB0263B4)
Complete name : D:\Bad.Times.at.the.El.Royale.2018.2xRus.BDRip.AVC.ExKinoRay.mkv
Format : Matroska
Format version : Version 2
File size : 3.12 GiB
Duration : 2 h 21 min
Overall bit rate : 3 158 kb/s
Movie name : Bad Times at the El Royale (2018) from ExKinoRay
Encoded date : UTC 2019-02-07 02:49:46
Writing application : mkvmerge v5.6.0 ('Kenya Kane') built on May 27 2012 16:44:04
Writing library : libebml v1.2.3 + libmatroska v1.3.0

Video
ID : 1
Format : AVC
Format/Info : Advanced Video Codec
Format profile : High@L4.1
Format settings, CABAC : Yes
Format settings, ReFrames : 12 frames
Codec ID : V_MPEG4/ISO/AVC
Duration : 2 h 21 min
Bit rate : 1 620 kb/s
Width : 1 024 pixels
Height : 428 pixels
Display aspect ratio : 2.40:1
Frame rate mode : Constant
Frame rate : 23.976 (23976/1000) FPS
Color space : YUV
Chroma subsampling : 4:2:0
Bit depth : 8 bits
Scan type : Progressive
Bits/(Pixel*Frame) : 0.154
Stream size : 1.54 GiB (49%)
Title : Enigma
Writing library : x264 core 152 r2851 ba24899
Encoding settings : cabac=1 / ref=12 / deblock=1:-2:-2 / analyse=0x3:0x113 / me=umh / subme=10 / psy=1 / psy_rd=0.98:0.03 / mixed_ref=1 / me_range=32 / chroma_me=1 / trellis=2 / 8x8dct=1 / cqm=0 / deadzone=21,11 / fast_pskip=0 / chroma_qp_offset=-3 / threads=12 / lookahead_threads=3 / sliced_threads=0 / nr=0 / decimate=0 / interlaced=0 / bluray_compat=0 / constrained_intra=0 / bframes=12 / b_pyramid=2 / b_adapt=2 / b_bias=0 / direct=3 / weightb=1 / open_gop=0 / weightp=2 / keyint=240 / keyint_min=23 / scenecut=40 / intra_refresh=0 / rc=2pass / mbtree=0 / bitrate=1620 / ratetol=1.0 / qcomp=0.60 / qpmin=0 / qpmax=51 / qpstep=4 / cplxblur=20.0 / qblur=0.5 / ip_ratio=1.40 / pb_ratio=1.30 / aq=2:0.90
Language : English
Default : Yes
Forced : No
Color range : Limited
Color primaries : BT.709
Transfer characteristics : BT.709
Matrix coefficients : BT.709

Audio #1
ID : 2
Format : AC-3
Format/Info : Audio Coding 3
Mode extension : CM (complete main)
Format settings, Endianness : Big
Codec ID : A_AC3
Duration : 2 h 21 min
Bit rate mode : Constant
Bit rate : 448 kb/s
Channel(s) : 6 channels
Channel positions : Front: L C R, Side: L R, LFE
Sampling rate : 48.0 kHz
Frame rate : 31.250 FPS (1536 spf)
Compression mode : Lossy
Stream size : 454 MiB (14%)
Title : Dub (Blu-Ray)
Language : Russian
Default : Yes
Forced : No

Audio #2
ID : 3
Format : AC-3
Format/Info : Audio Coding 3
Mode extension : CM (complete main)
Format settings, Endianness : Big
Codec ID : A_AC3
Duration : 2 h 21 min
Bit rate mode : Constant
Bit rate : 192 kb/s
Channel(s) : 2 channels
Channel positions : Front: L R
Sampling rate : 48.0 kHz
Frame rate : 31.250 FPS (1536 spf)
Compression mode : Lossy
Stream size : 195 MiB (6%)
Title : MVO
Language : Russian
Default : No
Forced : No

Audio #3
ID : 4
Format : AC-3
Format/Info : Audio Coding 3
Mode extension : CM (complete main)
Format settings, Endianness : Big
Codec ID : A_AC3
Duration : 2 h 21 min
Bit rate mode : Constant
Bit rate : 448 kb/s
Channel(s) : 6 channels
Channel positions : Front: L C R, Side: L R, LFE
Sampling rate : 48.0 kHz
Frame rate : 31.250 FPS (1536 spf)
Compression mode : Lossy
Stream size : 454 MiB (14%)
Language : Ukrainian
Default : No
Forced : No

Audio #4
ID : 5
Format : AC-3
Format/Info : Audio Coding 3
Mode extension : CM (complete main)
Format settings, Endianness : Big
Codec ID : A_AC3
Duration : 2 h 21 min
Bit rate mode : Constant
Bit rate : 448 kb/s
Channel(s) : 6 channels
Channel positions : Front: L C R, Side: L R, LFE
Sampling rate : 48.0 kHz
Frame rate : 31.250 FPS (1536 spf)
Compression mode : Lossy
Stream size : 454 MiB (14%)
Language : English
Default : No
Forced : No

Text #1
ID : 6
Format : UTF-8
Codec ID : S_TEXT/UTF8
Codec ID/Info : UTF-8 Plain Text
Title : Forced
Language : Russian
Default : Yes
Forced : No

Text #2
ID : 7
Format : UTF-8
Codec ID : S_TEXT/UTF8
Codec ID/Info : UTF-8 Plain Text
Title : Full
Language : Russian
Default : No
Forced : No

Text #3
ID : 8
Format : UTF-8
Codec ID : S_TEXT/UTF8
Codec ID/Info : UTF-8 Plain Text
Title : Forced
Language : Ukrainian
Default : No
Forced : No

Text #4
ID : 9
Format : UTF-8
Codec ID : S_TEXT/UTF8
Codec ID/Info : UTF-8 Plain Text
Language : English
Default : No
Forced : No

Text #5
ID : 10
Format : UTF-8
Codec ID : S_TEXT/UTF8
Codec ID/Info : UTF-8 Plain Text
Title : SDH
Language : English
Default : No
Forced : No

Menu
00:00:00.000 : en:Chapter 1
00:04:19.592 : en:Chapter 2
00:19:21.994 : en:Chapter 3
00:34:32.779 : en:Chapter 4
00:49:24.711 : en:Chapter 5
00:51:19.868 : en:Chapter 6
01:16:01.473 : en:Chapter 7
01:37:13.369 : en:Chapter 8
02:03:56.720 : en:Chapter 9
02:14:09.041 : en:Chapter 10
02:15:45.428 : en:Chapter 11
Релиз от:

Автор релиза: pb.wtf



Скачать Ничего хорошего в отеле «Эль рояль» через торрент https://d.radikal.ru/d13/1812/6f/c9e9d097f344.png Скачать фильм Ничего хорошего в отеле «Эль рояль» через торрент бесплантно в хорошем качестве Описание: 1969 год. Группа разношерстных личностей останавливается на ночь в когда-то популярном отеле «Эль Рояль», расположенном на ... 10 10 3
Info! Золотая раздача, скачанное не засчитывается.
Торрент: Зарегистрирован [2019-02-07 03:11] · скачан: 90 раз
Статус: √ проверено
Размер: 3.12 GB
Как cкачать? Как скачать Ничего хорошего в отеле «Эль рояль» через торрент | qTorrent

% Раздел Тема Автор DL S | L
Фильмы с авторской озвучкой [ 2.49 GB ] Ничего хорошего в отеле «Эль рояль» / Bad Times at the El Royale [2018 BDRip-AVC] AVO - [Яроцкий] - ExKinoRay Enigma2010 Скачать
1 | 0

28-11-2019 20:33  

Отключить всю рекламу на сайте

    Дорогой пользователь! Огромная просьба, поблагодарите релизера, оцените раздачу и оставьте свои комментарий, если Вы скачали Ничего хорошего в отеле «Эль рояль» через торрент бесплатно! Внесите свою лепту в развитие PiratBit!
    Комментировать посты могут только пользователи прошедшие не сложную регистрацию
    Показать сообщения:    

    Ничего хорошего в отеле «Эль рояль» через торрент
    Скачать бесплатно Ничего хорошего в отеле «Эль рояль»
    Ничего хорошего в отеле «Эль рояль» скачать торрент
    Ничего хорошего в отеле «Эль рояль» смотреть онлайн
    Cкачать фильм Ничего хорошего в отеле «Эль рояль» бесплатно
    Ничего хорошего в отеле «Эль рояль» скачать торрент в хорошем качестве
    Ничего хорошего в отеле «Эль рояль» смотреть онлайн бесплатно в хорошем качестве


    Вы не можете начинать темы
    Вы не можете отвечать на сообщения
    Вы не можете редактировать свои сообщения
    Вы не можете удалять свои сообщения
    Вы не можете голосовать в опросах
    Вы не можете прикреплять файлы к сообщениям
    Вы можете скачивать файлы