Ссылка на приватное зеркало нашего сайта всего за 1$. Внимание количество ограничено!!!

2 сезон

iTunes

1 сезон

1

2 сезон

2 сезон

iTunes

1 сезон

RePack

30

Новинка

ВАЖНО

ИГРА 18+

pack

RePack

MK11
pack

Забери бонус

RePack

jed

!!Акция!!

Alien_Rage

RePack

fifa19

RePack

Assassins Creed: Odyssey

RePack

NEED FOR SPEED™ PAYBACK

4 сезон

9 сезон

Бесстыжие 9 сезон

Все сериалы

все сериалы на PB.wtf

RePack

FAR CRY 5
  

Королевство / Kingdom / Сезон: 1 / Серии: 1-6 из 6 (Ким Сон-хун) [2019, ужасы, боевик, триллер, WEB-DL 1080p] MVO [Jaskier] pb.wtf

Королевство через торрент pb.wtf

Размер: 12.89 GB | Добавлен: 1 год 9 мес. назад | Торрент скачан:82 раза
Скачать  

07-02-2019 05:07 Королевство Скачать торрент  

Королевство / Kingdom Год выпуска: 2019
Страна: Корея Южная, США
Жанр: ужасы, боевик, триллер
Продолжительность: ~00:55:00
Перевод: Профессиональный (многоголосый закадровый) | Jaskier
Субтитры: отсутствуют

Режиссёр: Ким Сон-хун



В ролях:

Джи Хун Чжу, Ду На Пэ, Сын Рён Рю, Хе Чжун Ким, Сан Хо Ким (I), Сон Гю Ким, Чжун Хо Хо, Сок Хо Чон, Тэ Ёль Ким, Сок Вон Чон, Сон Гю Чжин

Описание:

Зомби-эпидемия разворачивается в период династии Чосон. Долго болевший правитель умирает, но возвращается к жизни в виде плотоядной нежити и начинает бродить по дворцу, поэтому наследному принцу приходится расследовать причины произошедшего и спасать страну от быстро распространяющейся заразы.

Качество: WEB-DL 1080p
Формат: MKV

Видео: 1920x1080 (16:9) | X264/MPEG4-AVC | ~4200 kbps | 23.976 fps
Аудио 1: AC3 | 48 KHz | 5.1 (Front: L С R Side: L R) + LFE | ~384 kbps [RUS]
Аудио 2: AC3 | 48 KHz | 5.1 (Front: L С R Side: L R) + LFE | ~384 kbps [ENG]


Реклама: Присутствует звуковая (два раза в начале и конце по 12 сек.)
Общее
Уникальный идентификатор                 : 189532282934561922128300261085365399924 (0x8E9697048CC0AF379D3898EC0453F174)
Полное имя                               : H:\JASKiER\Kingdom. Season 1 (WEB-DL l 1080p l Jaskier)\Kingdom.S01E01.1080p.WEB-DL.DD5.1.H.264-Jaskier.mkv
Формат                                   : Matroska
Версия формата                           : Version 2
Размер файла                             : 1,96 Гбайт
Продолжительность                        : 56 м. 49 с.
Режим общего битрейта                    : Переменный
Общий поток                              : 4945 Кбит/сек
Дата кодирования                         : UTC 2019-02-07 00:58:42
Программа кодирования                    : mkvmerge v7.8.0 ('River Man') 32bit built on Apr  3 2015 12:11:22
Библиотека кодирования                   : libebml v1.3.1 + libmatroska v1.4.2

Видео
Идентификатор                            : 1
Формат                                   : AVC
Формат/Информация                        : Advanced Video Codec
Профиль формата                          : Main@L4
Настройки формата                        : CABAC / 3 Ref Frames
Параметр CABAC формата                   : Да
Параметр RefFrames формата               : 3 кадра
Идентификатор кодека                     : V_MPEG4/ISO/AVC
Продолжительность                        : 56 м. 49 с.
Вид битрейта                             : Переменный
Битрейт                                  : 4220 Кбит/сек
Максимальный битрейт                     : 6330 Кбит/сек
Ширина                                   : 1920 пикселей
Высота                                   : 1080 пикселей
Соотношение сторон                       : 16:9
Режим частоты кадров                     : Постоянный
Частота кадров                           : 23,976 (24000/1001) кадра/сек
Цветовое пространство                    : YUV
Субдискретизация насыщенности            : 4:2:0
Битовая глубина                          : 8 бит
Тип развёртки                            : Прогрессивная
Бит/(Пиксели*Кадры)                      : 0.085
Размер потока                            : 1,62 Гбайт (82%)
Библиотека кодирования                   : x264 core 148 r2715 7e75228
Настройки программы                      : cabac=1 / ref=3 / deblock=1:0:0 / analyse=0x1:0x111 / me=umh / subme=10 / psy=1 / psy_rd=1.00:0.00 / mixed_ref=1 / me_range=24 / chroma_me=1 / trellis=2 / 8x8dct=0 / cqm=0 / deadzone=21,11 / fast_pskip=1 / chroma_qp_offset=-2 / threads=8 / lookahead_threads=1 / sliced_threads=0 / nr=0 / decimate=1 / interlaced=0 / bluray_compat=0 / stitchable=1 / constrained_intra=0 / bframes=2 / b_pyramid=0 / b_adapt=2 / b_bias=0 / direct=3 / weightb=1 / open_gop=0 / weightp=2 / keyint=48 / keyint_min=25 / scenecut=0 / intra_refresh=0 / rc_lookahead=48 / rc=2pass / mbtree=1 / bitrate=4220 / ratetol=1.0 / qcomp=0.50 / qpmin=6 / qpmax=51 / qpstep=4 / cplxblur=20.0 / qblur=0.5 / vbv_maxrate=6330 / vbv_bufsize=8440 / nal_hrd=vbr / filler=0 / ip_ratio=1.40 / aq=1:1.00
Язык                                     : English
Default                                  : Да
Forced                                   : Нет

Аудио #1
Идентификатор                            : 2
Формат                                   : AC-3
Формат/Информация                        : Audio Coding 3
Коммерческое название                    : Dolby Digital
Идентификатор кодека                     : A_AC3
Продолжительность                        : 56 м. 49 с.
Вид битрейта                             : Постоянный
Битрейт                                  : 384 Кбит/сек
Каналы                                   : 6 каналов
Channel layout                           : L R C LFE Ls Rs
Частота                                  : 48,0 КГц
Частота кадров                           : 31,250 кадров/сек (1536 SPF)
Битовая глубина                          : 16 бит
Метод сжатия                             : С потерями
Размер потока                            : 156 Мбайт (8%)
Заголовок                                : Jaskier
Язык                                     : Russian
ServiceKind/String                       : Complete Main
Default                                  : Да
Forced                                   : Нет

Аудио #2
Идентификатор                            : 3
Формат                                   : AC-3
Формат/Информация                        : Audio Coding 3
Коммерческое название                    : Dolby Digital
Идентификатор кодека                     : A_AC3
Продолжительность                        : 56 м. 49 с.
Вид битрейта                             : Постоянный
Битрейт                                  : 384 Кбит/сек
Каналы                                   : 6 каналов
Channel layout                           : L R C LFE Ls Rs
Частота                                  : 48,0 КГц
Частота кадров                           : 31,250 кадров/сек (1536 SPF)
Битовая глубина                          : 16 бит
Метод сжатия                             : С потерями
Размер потока                            : 156 Мбайт (8%)
Язык                                     : Korean
ServiceKind/String                       : Complete Main
Default                                  : Нет
Forced                                   : Нет
скриншот  скриншот  скриншот  
pb.wtf



Скачать Королевство через торрент https://i109.fastpic.ru/big/2019/0207/4f/e0f41a4ec9ef1acce89d348ff027da4f.png Скачать фильм Королевство через торрент бесплантно в хорошем качестве Описание: Зомби-эпидемия разворачивается в период династии Чосон. Долго болевший правитель умирает, но возвращается к жизни в виде ... 10 10 3
Торрент: Зарегистрирован [2019-02-07 05:07] · скачан: 82 раз
Статус: √ проверено
Размер: 12.89 GB
Как cкачать? Как скачать Королевство через торрент | qTorrent

% Раздел Тема Автор DL S | L
Зарубежные сериалы [ 69.03 GB ] Королевство / Kingdom / Сезон: 1 / Серии: 1-6 из 6 [2019 UHD WEBRip 2160p ] DVO [Кубик в Кубе] bober100 Скачать
1 | 0
Зарубежные сериалы [ 749 MB ] Королевство / Kingdeom / Kingdom / Сезон: 2 / Серии: 1- из 6 [2020 WEB-DLRip] MVO [LostFilm] bober100 Скачать
1 | 0
Зарубежные сериалы [ 3.8 GB ] Королевство / Kingdeom / Kingdom / Сезон: 2 / Серии: 1-6 из 6 [2020 WEB-DLRip] MVO [HDRezka] bober100 Скачать
2 | 0
Зарубежные сериалы [ 3.09 GB ] Королевство / Kingdeom / Kingdom / Сезон: 2 / Серии: 1- из 6 [2020 WEB-DL 1080p] MVO [LostFilm] bober100 Скачать
1 | 0
Зарубежные сериалы [ 13.14 GB ] Королевство / Kingdom / Сезон: 2 / Серии 1-6 из 6 [2020 WEB-DL 1080p] [MVO] killermax2013 Скачать
1 | 0
Зарубежные сериалы [ 17.03 GB ] Королевство / Kingdom / Сезон: 2 / Серии 1-6 из 6 [2020 WEBRip 1080p] [DVO] killermax2013 Скачать
1 | 0
Зарубежные сериалы [ 7.52 GB ] Королевство / Kingdom / Сезон: 1 / Серии: 1-6 из 6 [2019 WEB-DL 720p] MVO [Jaskier] bober100 Скачать
2 | 0

28-11-2019 20:33  

Отключить всю рекламу на сайте

18-03-2019 12:38 Королевство Скачать торрент  

когда примерно продолжение будет?pb.wtf



    Дорогой пользователь! Огромная просьба, поблагодарите релизера, оцените раздачу и оставьте свои комментарий, если Вы скачали Королевство через торрент бесплатно! Внесите свою лепту в развитие PiratBit!
    Комментировать посты могут только пользователи прошедшие не сложную регистрацию
    Показать сообщения:    

    Королевство через торрент
    Скачать бесплатно Королевство
    Королевство скачать торрент
    Королевство смотреть онлайн
    Cкачать фильм Королевство бесплатно
    Королевство скачать торрент в хорошем качестве
    Королевство смотреть онлайн бесплатно в хорошем качестве


    Вы не можете начинать темы
    Вы не можете отвечать на сообщения
    Вы не можете редактировать свои сообщения
    Вы не можете удалять свои сообщения
    Вы не можете голосовать в опросах
    Вы не можете прикреплять файлы к сообщениям
    Вы можете скачивать файлы