Доктор Стрэндж

Лицензия

Добыча

Дубляж

Уэнсдэй

1 сезон

Тор

Дубляж

В эфире

Дубляж

Там, где раки поют

MVO

Властелин колец

1 сезон

Deluxe

pack

Рекомендуем

30

Пиратка

ВАЖНО

ВАЖНО

Ghostwire

Пиратка

jed

RePack

nioh2

RePack

RDR2

RePack

NEED FOR SPEED™ PAYBACK

RePack

скачать торрент

Кинопоиск HD

Острые козырьки 6 сезон

6 сезон

FAR CRY 6

RePack

скачать торрент

Лицензия

скачать торрент

MVO

1

1 сезон

скачать торрент

1 сезон

скачать торрент

Лицензия

  

Ничего хорошего в отеле «Эль рояль» / Bad Times at the El Royale (Дрю Годдард) [2018, триллер, драма, криминал, BDRemux 1080p] Дубляж (rus, ukr) [Лицензия] + MVO [HDRezka] + AVO [Яроцкий]

Ничего хорошего в отеле «Эль рояль» через торрент pb.wtf

Размер: 36.88 GB | Добавлен: 3 года 10 мес. назад | Торрент скачан:7 раз
Смотреть онлайн | Скачать   

07-02-2019 05:11 Ничего хорошего в отеле «Эль рояль» Скачать торрент  

Ничего хорошего в отеле «Эль рояль» / Bad Times at the El Royale


Год выпуска: 2018
Страна: США
Жанр: триллер, драма, криминал, детектив
Продолжительность: 02:21:37
Перевод: Дублированный, профессиональный многоголосый, авторский
Субтитры: Русские, Украинские, Английские
Режиссер: Дрю Годдард
В ролях:

Джефф Бриджес (Father Daniel Flynn / Dock O'Kelly), Синтиа Эриво (Darlene Sweet), Дакота Джонсон (Emily Summerspring), Джон Хэмм (Laramie Seymour Sullivan / Dwight Broadbeck), Крис Хемсворт (Billy Lee), Кэйли Спэни (Rose Summerspring), Льюис Пуллман (Miles Miller), Ник Офферман (Felix O'Kelly), Ксавье Долан (Buddy Sunday), Шей Уигэм (Dr. Woodbury Laurence), Марк О’Брайэн (Larsen Rogers), Чарльз Халфорд (Sammy Wilds)
Описание:
Семь незнакомцев, у каждого из которых есть своя тайна, встречаются в заброшенном отеле «Эль Рояль» на озере Тахо. И этой ночью у каждого будет шанс на искупление... прежде чем всё пойдет к чертям.
Рейтинг:

MPAA: R - Лицам до 17 лет обязательно присутствие взрослого
Качество: BDRemux 1080p
Формат: MKV
Видео: MPEG-4 AVC, 26200 Кбит/с, 1920x1080
Аудио #01: 48 kHz, DTS, 5.1, 768 Kbps | Дублированный Blu ray eur | RUS |
Аудио #02: 48 kHz, DTS-HD MA, 7.1, 4907 Kbps | Aвторский Яроцкий | RUS |
Аудио #03: 48 kHz, AC3, 2ch, 192 Kbps | Mногоголоска HDRezka | RUS |
Аудио #04: 48 kHz, AC3, 5.1, 448 Kbps | Дублированный Blu ray eur | UKR |
Аудио #05: 48 kHz, DTS-HD MA, 7.1, 4778 Kbps | Оригинал | ENG |
Навигация по главам: есть
General
Unique ID : 88960416308026099436671917078139230123 (0x42ED272899F561B287FA47957131D7AB)
Complete name : F:\Bad.Times.at.the.El.Royale.2018.bdremuX.108Op.werecut.PROD.mkv
Format : Matroska
Format version : Version 4
File size : 36.9 GiB
Duration : 2 h 21 min
Overall bit rate mode : Variable
Overall bit rate : 37.3 Mb/s
Movie name : Bad Times at the El Royale 2018 OT werecut PROD.
Encoded date : UTC 2019-02-07 01:03:44
Writing application : mkvmerge v24.0.0 ('Beyond The Pale') 64-bit
Writing library : libebml v1.3.6 + libmatroska v1.4.9

Video
ID : 1
Format : AVC
Format/Info : Advanced Video Codec
Format profile : [email protected]
Format settings : CABAC / 4 Ref Frames
Format settings, CABAC : Yes
Format settings, ReFrames : 4 frames
Codec ID : V_MPEG4/ISO/AVC
Duration : 2 h 21 min
Bit rate mode : Variable
Bit rate : 26.2 Mb/s
Maximum bit rate : 32.5 Mb/s
Width : 1 920 pixels
Height : 1 080 pixels
Display aspect ratio : 16:9
Frame rate mode : Constant
Frame rate : 23.976 (24000/1001) FPS
Color space : YUV
Chroma subsampling : 4:2:0
Bit depth : 8 bits
Scan type : Progressive
Bits/(Pixel*Frame) : 0.527
Stream size : 25.9 GiB (70%)
Language : English
Default : Yes
Forced : No

Audio #1
ID : 2
Format : DTS
Format/Info : Digital Theater Systems
Codec ID : A_DTS
Duration : 2 h 21 min
Bit rate mode : Constant
Bit rate : 768 kb/s
Channel(s) : 6 channels
Channel layout : C L R Ls Rs LFE
Sampling rate : 48.0 kHz
Frame rate : 93.750 FPS (512 SPF)
Bit depth : 24 bits
Compression mode : Lossy
Stream size : 778 MiB (2%)
Title : blu ray eur
Language : Russian
Default : Yes
Forced : Yes

Audio #2
ID : 3
Format : AC-3
Format/Info : Audio Coding 3
Commercial name : Dolby Digital
Codec ID : A_AC3
Duration : 2 h 21 min
Bit rate mode : Constant
Bit rate : 448 kb/s
Channel(s) : 6 channels
Channel layout : L R C LFE Ls Rs
Sampling rate : 48.0 kHz
Frame rate : 31.250 FPS (1536 SPF)
Bit depth : 16 bits
Compression mode : Lossy
Stream size : 454 MiB (1%)
Title : blu ray eur
Language : Ukrainian
Service kind : Complete Main
Default : No
Forced : No

Audio #3
ID : 4
Format : AC-3
Format/Info : Audio Coding 3
Commercial name : Dolby Digital
Codec ID : A_AC3
Duration : 2 h 21 min
Bit rate mode : Constant
Bit rate : 192 kb/s
Channel(s) : 2 channels
Channel layout : L R
Sampling rate : 48.0 kHz
Frame rate : 31.250 FPS (1536 SPF)
Bit depth : 16 bits
Compression mode : Lossy
Stream size : 194 MiB (1%)
Title : HDRezka
Language : Russian
Service kind : Complete Main
Default : No
Forced : No

Audio #4
ID : 5
Format : DTS ES XLL
Format/Info : Digital Theater Systems
Commercial name : DTS-HD Master Audio
Codec ID : A_DTS
Duration : 2 h 21 min
Bit rate mode : Variable
Bit rate : 4 907 kb/s
Channel(s) : 8 channels
Channel layout : C L R Ls Rs LFE Lb Rb
Sampling rate : 48.0 kHz
Frame rate : 93.750 FPS (512 SPF)
Bit depth : 24 bits
Compression mode : Lossless
Stream size : 4.85 GiB (13%)
Title : avo
Language : Russian
Default : No
Forced : No

Audio #5
ID : 6
Format : DTS ES XLL
Format/Info : Digital Theater Systems
Commercial name : DTS-HD Master Audio
Codec ID : A_DTS
Duration : 2 h 21 min
Bit rate mode : Variable
Bit rate : 4 778 kb/s
Channel(s) : 8 channels
Channel layout : C L R Ls Rs LFE Lb Rb
Sampling rate : 48.0 kHz
Frame rate : 93.750 FPS (512 SPF)
Bit depth : 24 bits
Compression mode : Lossless
Stream size : 4.73 GiB (13%)
Language : English
Default : No
Forced : No

Text #1
ID : 7
Format : UTF-8
Codec ID : S_TEXT/UTF8
Codec ID/Info : UTF-8 Plain Text
Duration : 2 h 17 min
Bit rate : 0 b/s
Count of elements : 11
Stream size : 329 Bytes (0%)
Title : Forced
Language : Russian
Default : Yes
Forced : Yes

Text #2
ID : 8
Format : UTF-8
Codec ID : S_TEXT/UTF8
Codec ID/Info : UTF-8 Plain Text
Duration : 2 h 17 min
Bit rate : 57 b/s
Count of elements : 1316
Stream size : 57.6 KiB (0%)
Language : Russian
Default : No
Forced : No

Text #3
ID : 9
Format : UTF-8
Codec ID : S_TEXT/UTF8
Codec ID/Info : UTF-8 Plain Text
Duration : 2 h 11 min
Bit rate : 0 b/s
Count of elements : 14
Stream size : 525 Bytes (0%)
Title : Forced
Language : Ukrainian
Default : No
Forced : No

Text #4
ID : 10
Format : UTF-8
Codec ID : S_TEXT/UTF8
Codec ID/Info : UTF-8 Plain Text
Duration : 2 h 13 min
Bit rate : 41 b/s
Count of elements : 1467
Stream size : 40.5 KiB (0%)
Language : English
Default : No
Forced : No

Menu
00:00:00.000 : en:Chapter 1
00:04:19.592 : en:Chapter 2
00:19:21.994 : en:Chapter 3
00:34:32.779 : en:Chapter 4
00:49:24.711 : en:Chapter 5
00:51:19.868 : en:Chapter 6
01:16:01.473 : en:Chapter 7
01:37:13.369 : en:Chapter 8
02:03:56.720 : en:Chapter 9
02:14:09.041 : en:Chapter 10
02:15:45.428 : en:Chapter 11



Скачать Ничего хорошего в отеле «Эль рояль» через торрент https://c.radikal.ru/c41/1902/90/80326b7331cb.png Скачать, смотреть онлайн Ничего хорошего в отеле «Эль рояль» бесплантно в хорошем качестве Описание: Семь незнакомцев, у каждого из которых есть своя тайна, встречаются в заброшенном отеле «Эль Рояль» на озере Тахо. И этой ночью у ... 10 10 2
Торрент: Зарегистрирован [2019-02-07 05:11] · скачан: 7 раз
Статус: √ проверено
Размер: 36.88 GB
Как cкачать? Как скачать Ничего хорошего в отеле «Эль рояль» через торрент | UTorrent

% Раздел Тема Автор DL S | L
Ultra HD (UHD: 2K, 4K, 8K) [ 31.2 GB ] Ничего хорошего в отеле «Эль рояль» / Bad Times at the El Royale | Лицензия | 2160p sheker187 Скачать
1 | 0
Фильмы (HD 720p, 1080p) (48-60 fps) [ 19.98 GB ] Ничего хорошего в отеле «Эль рояль» / Bad Times at the El Royale | iTunes | 1080p, 60 fps sheker187 Скачать
1 | 0
Фильмы 2018 [DVDrip, WEB-DLRip, HDrip] (DUB, MVO) [ 1.46 GB ] Ничего хорошего в отеле «Эль рояль» / Bad Times at the El Royale | Лицензия | BDRip Twi7ter Скачать
1 | 0
Фильмы [HD 720p, 1080p] (Хороший звук DUB, MVO) [ 15.35 GB ] Ничего хорошего в отеле «Эль рояль» / Bad Times at the El Royale | Лицензия | 1080p sheker187 Скачать
1 | 0
Ultra HD (UHD: 2K, 4K, 8K) [ 56.4 GB ] Ничего хорошего в отеле «Эль рояль» / Bad Times at the El Royale | DUB + MVO + AVO | 2160p sheker187 Скачать
1 | 0
Фильмы 2018 [DVDrip, WEB-DLRip, HDrip] (DUB, MVO) [ 1.46 GB ] Ничего хорошего в отеле «Эль рояль» / Bad Times at the El Royale | Лицензия BD EUR | BDRip-AVC Skandar2019 Скачать
1 | 0
Ultra HD (UHD: 2K, 4K, 8K) [ 56.41 GB ] Ничего хорошего в отеле «Эль рояль» / Bad Times at the El Royale | Лицензия | 2160p sheker187 Скачать
1 | 0

28-11-2019 20:33  


Отключить вcю реклaмy на сайте, в т.ч. и в плеере онлайн просмотра!

    Дорогой пользователь! Огромная просьба, поблагодарите релизера, оцените раздачу и оставьте свои комментарий, если Вы скачали Ничего хорошего в отеле «Эль рояль» через торрент бесплатно!!
    Комментировать посты могут только пользователи прошедшие не сложную регистрацию
    Показать сообщения:    


    Ничего хорошего в отеле «Эль рояль» через торрент
    Скачать бесплатно Ничего хорошего в отеле «Эль рояль»
    Ничего хорошего в отеле «Эль рояль» скачать торрент
    Ничего хорошего в отеле «Эль рояль» смотреть онлайн
    Cкачать фильм Ничего хорошего в отеле «Эль рояль» бесплатно
    Ничего хорошего в отеле «Эль рояль» скачать торрент в хорошем качестве
    Ничего хорошего в отеле «Эль рояль» смотреть онлайн бесплатно в хорошем качестве
    Вы не можете начинать темы
    Вы не можете отвечать на сообщения
    Вы не можете редактировать свои сообщения
    Вы не можете удалять свои сообщения
    Вы не можете голосовать в опросах
    Вы не можете прикреплять файлы к сообщениям
    Вы можете скачивать файлы
    Ничего хорошего в отеле «Эль рояль» / Bad Times at the El Royale [2018, триллер, драма, криминал, BDRemux 1080p] Дубляж [Лицензия] + MVO [HDRezka] + AVO [Яроцкий] смотреть онлайн, скачать торрент picoco.icu