Ссылка на приватное зеркало нашего сайта всего за 1$. Внимание количество ограничено!!!

2 сезон

iTunes

1 сезон

1

2 сезон

2 сезон

iTunes

1 сезон

RePack

30

Ultimate

ВАЖНО

ИГРА 18+

pack

RePack

MK11
pack

Забери бонус

RePack

jed

!!Акция!!

Alien_Rage

RePack

fifa19

RePack

Assassins Creed: Odyssey

RePack

NEED FOR SPEED™ PAYBACK

4 сезон

9 сезон

Бесстыжие 9 сезон

Все сериалы

все сериалы на PB.wtf

RePack

FAR CRY 5
  

Половое воспитание / Всё о сексе / Sex Education / Сезон: 1 / Серии: 1-8 из 8 (Кейт Херрон, Бен Тэйлор) [2019, драма, комедия, WEB-DLRip] MVO [Jaskier] pb.wtf

Половое воспитание через торрент pb.wtf

Размер: 4.67 GB | Добавлен: 1 год 9 мес. назад | Торрент скачан:271 раз
Скачать  

07-02-2019 05:33 Половое воспитание Скачать торрент  

Половое воспитание / Всё о сексе / Sex Education

Год выпуска: 2019
Страна: США, Великобритания
Жанр: драма, комедия
Продолжительность: ~ 00:55:00
Перевод: Профессиональный (многоголосый закадровый) | Jaskier | БЕЗ ЦЕНЗУРЫ
Субтитры: отсутствуют
Режиссёр: Кейт Херрон, Бен Тэйлор

В ролях:

Джиллиан Андерсон, Эйса Баттерфилд, Эмма Маккей, Нкути Гатуа, Шанель Кулар, Алистэр Петри, Коннор Суинделлс, Александр Вествуд, Кедар Уильямс-Стирлинг, Мими Кин, Таня Рейнольдс, Патриция Эллисон, Симон Эшли

Описание:

Сериал расскажет о неловком шестнадцатилетнем парне по имени Отис (Эйса Баттерфилд). Его мама (Джиллиан Андерсон) работает секс-терапевтом. Поэтому юноша, несмотря на свою необщительность с противоположным полом, неплохо разбирается в физиологии и психологии. Однажды, объединившись со своей одноклассницей - остроумной «плохой девочкой» Мэйв, Отис решает открыть в школе подпольные курсы сексуального воспитания, чтобы помочь одноклассникам справиться с переживаниями и сложностями переходного возраста. А заодно – подзаработать немного денег. Правда, довольно быстро юноша понимает, что ему самому не помешала бы профессиональная помощь в этих вопросах.



Качество: WEB-DLRip
Формат: AVI

Видео: XviD, ~ 1400 kbps, 704x352, 25.000 fps
Аудио 1: MP3, 48,0 КГц, 2 ch, 128 kbps - RUS
Аудио 2: MP3, 48,0 КГц, 2 ch, 128 kbps - ENG


Реклама: аудио, два раза в начале и в конце по 12 секунд
Общее
Полное имя                               : V:\Sex.Education. Season 1 (WEB-DL l 400p l Jaskier)\Sex.Education.S01E01.400p.Jaskier.avi
Формат                                   : AVI
Формат/Информация                        : Audio Video Interleave
Размер файла                             : 623 Мбайт
Продолжительность                        : 52 м.
Общий поток                              : 1670 Кбит/сек
Программа кодирования                    : VirtualDubMod 1.5.10.3 | www.virtualdub-fr.org || (build 2550/release)
Библиотека кодирования                   : VirtualDubMod build 2550/release

Видео
Идентификатор                            : 0
Формат                                   : MPEG-4 Visual
Профиль формата                          : Advanced Simple@L5
Параметр BVOP формата                    : 2
Параметр QPel формата                    : Нет
Параметр GMC формата                     : Без точки перехода
Параметр матрицы формата                 : Выборочная
Идентификатор кодека                     : XVID
Идентификатор кодека/Подсказка           : XviD
Продолжительность                        : 52 м.
Битрейт                                  : 1400 Кбит/сек
Ширина                                   : 704 пикселя
Высота                                   : 352 пикселя
Соотношение сторон                       : 2,000
Частота кадров                           : 25,000 кадров/сек
Цветовое пространство                    : YUV
Субдискретизация насыщенности            : 4:2:0
Битовая глубина                          : 8 бит
Тип развёртки                            : Прогрессивная
Метод сжатия                             : С потерями
Бит/(Пиксели*Кадры)                      : 0.226
Размер потока                            : 522 Мбайт (84%)
Библиотека кодирования                   : XviD 73

Аудио #1
Идентификатор                            : 1
Формат                                   : MPEG Audio
Версия формата                           : Version 1
Профиль формата                          : Layer 3
Режим                                    : Joint stereo
Расширение режима                        : MS Stereo
Идентификатор кодека                     : 55
Идентификатор кодека/Подсказка           : MP3
Продолжительность                        : 52 м.
Вид битрейта                             : Постоянный
Битрейт                                  : 128 Кбит/сек
Каналы                                   : 2 канала
Частота                                  : 48,0 КГц
Метод сжатия                             : С потерями
Размер потока                            : 47,7 Мбайт (8%)
Выравнивание                             : Соединение по промежуткам
Продолжительность промежутка             : 40  мс. (1,00 видеокадр)
Время предзагрузки промежутка            : 504  мс.

Аудио #2
Идентификатор                            : 2
Формат                                   : MPEG Audio
Версия формата                           : Version 1
Профиль формата                          : Layer 3
Режим                                    : Joint stereo
Расширение режима                        : MS Stereo
Идентификатор кодека                     : 55
Идентификатор кодека/Подсказка           : MP3
Продолжительность                        : 52 м.
Вид битрейта                             : Постоянный
Битрейт                                  : 128 Кбит/сек
Каналы                                   : 2 канала
Частота                                  : 48,0 КГц
Метод сжатия                             : С потерями
Размер потока                            : 47,7 Мбайт (8%)
Выравнивание                             : Соединение по промежуткам
Продолжительность промежутка             : 40  мс. (1,00 видеокадр)
Время предзагрузки промежутка            : 504  мс.
скриншот  скриншот  скриншот  
Когда раздача ведётся путём добавления новых серий, при каждом добавлении создётся новый торрент. Чтобы начать докачку новой серии, пользователям необходимо сделать следующее:
(1) остановить скачивание,
(2) удалить старый торрент у себя из клиента (старые серии удалять не надо),
(3) скачать новый торрент и запустить его у себя в клиенте вместо старого, при этом указать клиенту путь в старую папку, куда и должно происходить скачивание новых серий.
Ваш клиент при этом должен произвести хеширование (проверку) старой папки (если не производит сам - помогите ему сделать это), и будет докачивать только те серии, которых у вас ещё нет. Старые серии при этом не удаляются, а продолжают раздаваться!
Eсли вы уже удалили старые серии, то предотвратить повторную закачку старых серий можно, отжав галочку в соответсвующих местах при запуске нового торрента. По возможности, желательно не удалять старые серии как можно дольше, чтобы релизёр не столько продолжал раздавать старые серии, а смог сконцентрироваться на новых.
pb.wtf



Скачать Половое воспитание через торрент https://i84.fastpic.ru/big/2019/0206/d1/94cb41b32589c18f3a57f4e143d1a6d1.png Скачать фильм Половое воспитание через торрент бесплантно в хорошем качестве Описание: Сериал расскажет о неловком шестнадцатилетнем парне по имени Отис (Эйса Баттерфилд). Его мама (Джиллиан Андерсон) работает ... 8 10 5
Торрент: Зарегистрирован [2019-02-07 05:33] · скачан: 271 раз
Статус: √ проверено
Размер: 4.67 GB
Как cкачать? Как скачать Половое воспитание через торрент | qTorrent

% Раздел Тема Автор DL S | L
Зарубежные сериалы [ 18.73 GB ] Половое воспитание / Сексуальное просвещение / Всё о сексе / Sex Education / Сезон: 2 / Серии: 1-8 из 8 [2020 WEBRip 1080p] MVO [BTI Studio & Пифагор / Netflix] bober100 Скачать
1 | 0
Зарубежные сериалы [ 40.54 GB ] Половое воспитание / Всё о сексе / Sex Education / Сезон: 2 / Серии: 1-8 из 8 [2020 WEBRip 1080p] [DVO] killermax2013 Скачать
3 | 0
Зарубежные сериалы [ 11.2 GB ] Половое воспитание / Сексуальное просвещение / Всё о сексе / Sex Education / Сезон: 2 / Серии: 1-8 из 8 [2020 WEBRip 720p] MVO [TVShows] bober100 Скачать
1 | 0
Зарубежные сериалы [ 5.85 GB ] Половое воспитание / Сексуальное просвещение / Всё о сексе / Sex Education / Сезон: 2 / Серии: 1-8 из 8 [2020 WEB-DLRip] MVO [LostFilm] bober100 Скачать
1 | 0
Зарубежные сериалы [ 17.23 GB ] Половое воспитание / Сексуальное просвещение / Всё о сексе / Sex Education / Сезон: 2 / Серии: 1-8 из 8 [2020 WEB-DL 1080p] MVO [Jaskier] bober100 Скачать
1 | 0
Зарубежные сериалы [ 10.26 GB ] Половое воспитание / Сексуальное просвещение / Всё о сексе / Sex Education / Сезон: 2 / Серии: 1-8 из 8 [2020 WEB-DL 720p] MVO [Jaskier] bober100 Скачать
1 | 0
Зарубежные сериалы [ 4.89 GB ] Половое воспитание / Сексуальное просвещение / Всё о сексе / Sex Education / Сезон: 2 / Серии: 1-8 из 8 [2020 WEB-DLRip] MVO [Jaskier] bober100 Скачать
2 | 0

28-11-2019 20:33  

Отключить всю рекламу на сайте

    Дорогой пользователь! Огромная просьба, поблагодарите релизера, оцените раздачу и оставьте свои комментарий, если Вы скачали Половое воспитание через торрент бесплатно! Внесите свою лепту в развитие PiratBit!
    Комментировать посты могут только пользователи прошедшие не сложную регистрацию
    Показать сообщения:    

    Половое воспитание через торрент
    Скачать бесплатно Половое воспитание
    Половое воспитание скачать торрент
    Половое воспитание смотреть онлайн
    Cкачать фильм Половое воспитание бесплатно
    Половое воспитание скачать торрент в хорошем качестве
    Половое воспитание смотреть онлайн бесплатно в хорошем качестве


    Вы не можете начинать темы
    Вы не можете отвечать на сообщения
    Вы не можете редактировать свои сообщения
    Вы не можете удалять свои сообщения
    Вы не можете голосовать в опросах
    Вы не можете прикреплять файлы к сообщениям
    Вы можете скачивать файлы