Ссылка на приватное зеркало нашего сайта всего за 1$. Внимание количество ограничено!!!

2 сезон

iTunes

1 сезон

1

2 сезон

2 сезон

iTunes

1 сезон

RePack

30

Ultimate

ВАЖНО

ИГРА 18+

pack

RePack

MK11
pack

Забери бонус

RePack

jed

!!Акция!!

Alien_Rage

RePack

fifa19

RePack

Assassins Creed: Odyssey

RePack

NEED FOR SPEED™ PAYBACK

4 сезон

9 сезон

Бесстыжие 9 сезон

Все сериалы

все сериалы на PB.wtf

RePack

FAR CRY 5
  

Эль Касо. Хроника событий / El Caso. Crónica de sucesos / Сезон: 1 / Серии: 1-13 из 13 (Хавьер Кинтас, Хосе Рамос Паино) [2016, Испания, криминал, детектив, WEB-DL 1080p] DVO [ViruseProject] pb.wtf

Эль Касо. Хроника событий через торрент pb.wtf

Размер: 80.72 GB | Добавлен: 1 год 9 мес. назад | Торрент скачан:5 раз
Скачать  

07-02-2019 07:41 Эль Касо. Хроника событий Скачать торрент  

Эль Касо. Хроника событий / El Caso. Crónica de sucesos

Год выпуска: 2016
Страна: Испания
Жанр: криминал, детектив
Продолжительность: ~01:15:00
Перевод: Любительский (двухголосый закадровый) ViruseProject
Субтитры: русские, испанские

Режиссёр: Хавьер Кинтас, Хосе Рамос Паино

В ролях:

Фернандо Гильен Куэрво, Вероника Санчес, Антонио Гарридо, Франсиско Ортис, Фернандо Кайо, Горка Ласаоса и др.

Описание:

Хесус Экспосито, журналист известного испанского еженедельника "Эль Касо", одержим поиском серийного маньяка - "убийцы по чёткам". Вместе со своим приятелем полицейским и новой напарницей они постараются докопаться до истины.

Качество: WEB-DL 1080p
Контейнер: MKV

Видео: 1 920 x 1 080 (16:9), 10.0 Mb/s, 25.000 FPS, 8 bits
Аудио Rus: 48.0 kHz, AC3, 2 channels, 192 kb/s
Аудио Spa: 48.0 kHz, AC3, 2 channels, 224 kb/s


Реклама: В аудио в начале и конце по 12 секунд.

General
Unique ID : 238779636253736286373513091418049027939 (0xB3A349000E32B737A9A21663E1911F63)
Complete name : El.Caso.Cronica.de.sucesos.S01E01.1080p.WEB-DL.ViruseProject.mkv
Format : Matroska
Format version : Version 4 / Version 2
File size : 6.17 GiB
Duration : 1 h 19 min
Overall bit rate mode : Variable
Overall bit rate : 11.1 Mb/s
Encoded date : UTC 2019-02-07 04:20:32
Writing application : mkvmerge v8.3.0 ('Over the Horizon') 64bit
Writing library : libebml v1.3.1 + libmatroska v1.4.2

Video
ID : 1
Format : AVC
Format/Info : Advanced Video Codec
Format profile : High@L4
Format settings, CABAC : Yes
Format settings, ReFrames : 4 frames
Codec ID : V_MPEG4/ISO/AVC
Duration : 1 h 19 min
Bit rate mode : Variable
Bit rate : 10.7 Mb/s
Maximum bit rate : 15.0 Mb/s
Width : 1 920 pixels
Height : 1 080 pixels
Display aspect ratio : 16:9
Frame rate mode : Constant
Frame rate : 25.000 FPS
Color space : YUV
Chroma subsampling : 4:2:0
Bit depth : 8 bits
Scan type : Progressive
Bits/(Pixel*Frame) : 0.206
Stream size : 5.94 GiB (96%)
Default : Yes
Forced : No
Color range : Limited
Color primaries : BT.709
Transfer characteristics : BT.709
Matrix coefficients : BT.709

Audio #1
ID : 2
Format : AC-3
Format/Info : Audio Coding 3
Format settings, Endianness : Big
Codec ID : A_AC3
Duration : 1 h 19 min
Bit rate mode : Constant
Bit rate : 192 kb/s
Channel(s) : 2 channels
Channel positions : Front: L R
Sampling rate : 48.0 kHz
Frame rate : 31.250 FPS (1536 spf)
Bit depth : 16 bits
Compression mode : Lossy
Stream size : 109 MiB (2%)
Title : ViruseProject
Language : Russian
Service kind : Complete Main
Default : Yes
Forced : No

Audio #2
ID : 3
Format : E-AC-3
Format/Info : Enhanced Audio Coding 3
Format settings, Endianness : Big
Codec ID : A_EAC3
Duration : 1 h 19 min
Bit rate mode : Constant
Bit rate : 224 kb/s
Channel(s) : 2 channels
Channel positions : Front: L R
Sampling rate : 48.0 kHz
Frame rate : 187.500 FPS (256 spf)
Compression mode : Lossy
Stream size : 128 MiB (2%)
Language : Spanish
Service kind : Complete Main
Default : No
Forced : No

Text #1
ID : 4
Format : ASS
Codec ID : S_TEXT/ASS
Codec ID/Info : Advanced Sub Station Alpha
Duration : 1 h 17 min
Bit rate : 136 b/s
Count of elements : 886
Compression mode : Lossless
Stream size : 77.8 KiB (0%)
Language : Russian
Default : No
Forced : No

Text #2
ID : 5
Format : UTF-8
Codec ID : S_TEXT/UTF8
Codec ID/Info : UTF-8 Plain Text
Duration : 1 h 17 min
Bit rate : 103 b/s
Count of elements : 886
Stream size : 58.9 KiB (0%)
Language : Russian
Default : No
Forced : No

Text #3
ID : 6
Format : UTF-8
Codec ID : S_TEXT/UTF8
Codec ID/Info : UTF-8 Plain Text
Duration : 1 h 19 min
Bit rate : 65 b/s
Count of elements : 1021
Stream size : 38.1 KiB (0%)
Title : SDH
Language : Spanish
Default : No
Forced : No
скриншот  скриншот  скриншот  скриншот  
pb.wtf



Скачать Эль Касо. Хроника событий через торрент https://i110.fastpic.ru/big/2019/0207/58/16385c62efacf610a9c6d9aacf563358.jpg Скачать фильм Эль Касо. Хроника событий через торрент бесплантно в хорошем качестве Описание: Хесус Экспосито, журналист известного испанского еженедельника "Эль Касо", одержим поиском серийного маньяка - "убийцы по ... 7 10 3
Info! Золотая раздача, скачанное не засчитывается.
Торрент: Зарегистрирован [2019-02-07 07:41] · скачан: 5 раз
Статус: √ проверено
Размер: 80.72 GB
Как cкачать? Как скачать Эль Касо. Хроника событий через торрент | qTorrent

28-11-2019 20:33  

Отключить всю рекламу на сайте

    Дорогой пользователь! Огромная просьба, поблагодарите релизера, оцените раздачу и оставьте свои комментарий, если Вы скачали Эль Касо. Хроника событий через торрент бесплатно! Внесите свою лепту в развитие PiratBit!
    Комментировать посты могут только пользователи прошедшие не сложную регистрацию
    Показать сообщения:    

    Эль Касо. Хроника событий через торрент
    Скачать бесплатно Эль Касо. Хроника событий
    Эль Касо. Хроника событий скачать торрент
    Эль Касо. Хроника событий смотреть онлайн
    Cкачать фильм Эль Касо. Хроника событий бесплатно
    Эль Касо. Хроника событий скачать торрент в хорошем качестве
    Эль Касо. Хроника событий смотреть онлайн бесплатно в хорошем качестве


    Вы не можете начинать темы
    Вы не можете отвечать на сообщения
    Вы не можете редактировать свои сообщения
    Вы не можете удалять свои сообщения
    Вы не можете голосовать в опросах
    Вы не можете прикреплять файлы к сообщениям
    Вы можете скачивать файлы