Ссылка на приватное зеркало нашего сайта всего за 1$. Внимание количество ограничено!!!

2 сезон

iTunes

1 сезон

1

2 сезон

2 сезон

iTunes

1 сезон

RePack

30

Новинка

ВАЖНО

ИГРА 18+

pack

RePack

MK11
pack

Забери бонус

RePack

jed

!!Акция!!

Alien_Rage

RePack

fifa19

RePack

Assassins Creed: Odyssey

RePack

NEED FOR SPEED™ PAYBACK

4 сезон

9 сезон

Бесстыжие 9 сезон

Все сериалы

все сериалы на PB.wtf

RePack

FAR CRY 5
  

Гайвер 2: Темный герой / Guyver: Dark Hero (Стив Ванг) [1994, Фантастика, боевик, WEB-DL 1080p] MVO [СВ Студия] pb.wtf

Гайвер 2: Темный герой через торрент pb.wtf

Размер: 12.58 GB | Добавлен: 1 год 9 мес. назад | Торрент скачан:159 раз
Скачать  

07-02-2019 07:59 Гайвер 2: Темный герой Скачать торрент  

Гайвер 2: Темный герой / Guyver: Dark Hero Год выпуска: 1994
Страна: США
Жанр: Фантастика, боевик
Продолжительность: 02:03:49
Перевод: Профессиональный (многоголосый) | СВ Студия
Субтитры: русские, английские

Режиссер: Стив Ванг

rating

В ролях:

Дэвид Хэйтер, Кэти Кристоферсон, Бруно Патрик, Кристофер Майкл, Стюарт Уайсс, Билли Ли, Джим О’Доного, Дж.Д. Смит, Алиса Мерлин, Уэс Дейтрик, Вероника Рид, Энн Джордж, Марисса Коуди, Кристин Кэлкинс, Шон Т. Бенжамин, Койти Сакамото, Батч Портильо, Кен Гудман, Брайан Симпсон

Описание:

Шона, волею судеб ставшего обладателем Гайвера, мучают странные сны, смысл которых он не может понять. В поисках ответов он отправляется к месту археологических раскопок, где был обнаружен инопланетный космический корабль, очень похожий на те, которые он рисовал по утрам. Но там молодой человек обнаруживает пришельцев, околачивающихся возле археологических раскопок, и ему необходимо использовать свои чудодейственные доспехи, чтобы остановить их...

Качество: WEB-DL 1080p
Формат: MKV

Видео: MPEG-4 AVC, 1920x1080, 13400 Кбит/с
Аудио#1: Русский (48 kHz, AC3, 6 ch, 448 Кбит/с) СВ Студия
Аудио#2: Английский (48 kHz, AC3, 6 ch, 448 Кбит/с)
скриншот  скриншот  скриншот  скриншот  

General
Unique ID : 253423498744105916891405948811210292400 (0xBEA79729FA10F8D4AED71412F7BA7CB0)
Complete name : C:UsersushenDesktopТоррентGuyver.Dark.Hero.1994.1080p.AMZN.WEB-D.mkv
Format : Matroska
Format version : Version 4
File size : 12.6 GiB
Duration : 2 h 3 min
Overall bit rate mode : Variable
Overall bit rate : 14.5 Mb/s
Encoded date : UTC 2017-12-25 08:00:31
Writing application : mkvmerge v6.9.1 ('Blue Panther') 64bit built on Apr 18 2014 18:23:38
Writing library : libebml v1.3.0 + libmatroska v1.4.1

Video
ID : 1
Format : AVC
Format/Info : Advanced Video Codec
Format profile : High@L4
Format settings : CABAC / 4 Ref Frames
Format settings, CABAC : Yes
Format settings, ReFrames : 4 frames
Codec ID : V_MPEG4/ISO/AVC
Duration : 2 h 3 min
Bit rate mode : Variable
Bit rate : 13.4 Mb/s
Maximum bit rate : 15.0 Mb/s
Width : 1 920 pixels
Height : 1 080 pixels
Display aspect ratio : 16:9
Frame rate mode : Constant
Frame rate : 23.976 (24000/1001) FPS
Color space : YUV
Chroma subsampling : 4:2:0
Bit depth : 8 bits
Scan type : Progressive
Bits/(Pixel*Frame) : 0.269
Stream size : 11.6 GiB (92%)
Default : Yes
Forced : No
Color range : Limited
Color primaries : BT.709
Transfer characteristics : BT.709
Matrix coefficients : BT.709

Audio #1
ID : 2
Format : AC-3
Format/Info : Audio Coding 3
Commercial name : Dolby Digital
Codec ID : A_AC3
Duration : 2 h 3 min
Bit rate mode : Constant
Bit rate : 448 kb/s
Channel(s) : 6 channels
Channel layout : L R C LFE Ls Rs
Sampling rate : 48.0 kHz
Frame rate : 31.250 FPS (1536 SPF)
Bit depth : 16 bits
Compression mode : Lossy
Stream size : 397 MiB (3%)
Title : MVO (SvStudio)
Language : Russian
Service kind : Complete Main
Default : Yes
Forced : No

Audio #2
ID : 3
Format : AC-3
Format/Info : Audio Coding 3
Commercial name : Dolby Digital
Codec ID : A_AC3
Duration : 2 h 3 min
Bit rate mode : Constant
Bit rate : 448 kb/s
Channel(s) : 6 channels
Channel layout : L R C LFE Ls Rs
Sampling rate : 48.0 kHz
Frame rate : 31.250 FPS (1536 SPF)
Bit depth : 16 bits
Compression mode : Lossy
Stream size : 397 MiB (3%)
Title : Original
Language : English
Service kind : Complete Main
Default : No
Forced : No

Text #1
ID : 4
Format : UTF-8
Codec ID : S_TEXT/UTF8
Codec ID/Info : UTF-8 Plain Text
Language : Russian
Default : No
Forced : No

Text #2
ID : 5
Format : UTF-8
Codec ID : S_TEXT/UTF8
Codec ID/Info : UTF-8 Plain Text
Language : English
Default : No
Forced : No

pb.wtf



Скачать Гайвер 2: Темный герой через торрент http://img10.lostpic.net/2018/10/25/0d2b409d1d7faa87450302fd18e644a0.png Скачать фильм Гайвер 2: Темный герой через торрент бесплантно в хорошем качестве Описание: Шона, волею судеб ставшего обладателем Гайвера, мучают странные сны, смысл которых он не может понять. В поисках ответов он ... 10 10 16
Info! Золотая раздача, скачанное не засчитывается.
Торрент: Зарегистрирован [2019-02-07 07:59] · скачан: 159 раз
Статус: √ проверено
Размер: 12.58 GB
Как cкачать? Как скачать Гайвер 2: Темный герой через торрент | qTorrent

% Раздел Тема Автор DL S | L
Фильмы (WEB-DL 720p, 1080p) [ 13.25 GB ] Гайвер 2: Темный герой / Guyver: Dark Hero [1994 WEB-DL 1080p] MVO + 4xAVO - KORSAR GoldDust Скачать
2 | 0
Фильмы с авторской озвучкой [ 1.4 GB ] Гайвер 2: Темный герой / Guyver: Dark Hero [1994 Фантастический DVDRip] [Специальное полное издание] [AVO] killermax2013 Скачать
1 | 0
Фильмы до 2000 г. [ 1.44 GB ] Гайвер 2: Темный герой / Guyver: Dark Hero [1994 DVDRip-AVC VO] Userman4ik Скачать
1 | 0

28-11-2019 20:33  

Отключить всю рекламу на сайте

07-02-2019 08:20 Гайвер 2: Темный герой Скачать торрент  

фильм детства,Автору спасибоpb.wtf



07-02-2019 09:39 Гайвер 2: Темный герой Скачать торрент  

Странно что до сих пор никто не взялся перезапустить. Учитывая тренды последнего времени.pb.wtf



07-02-2019 10:10 Гайвер 2: Темный герой Скачать торрент  

А первая часть будет в таком же качестве?pb.wtf



07-02-2019 10:46 Гайвер 2: Темный герой Скачать торрент  

создатель фильма драйвpb.wtf



07-02-2019 15:57 Гайвер 2: Темный герой Скачать торрент  

Классный фильм. Автору спасибо)))))pb.wtf



07-02-2019 19:51 Гайвер 2: Темный герой Скачать торрент  

Спасибо)))) эээх ностальгия 😎pb.wtf



    Дорогой пользователь! Огромная просьба, поблагодарите релизера, оцените раздачу и оставьте свои комментарий, если Вы скачали Гайвер 2: Темный герой через торрент бесплатно! Внесите свою лепту в развитие PiratBit!
    Комментировать посты могут только пользователи прошедшие не сложную регистрацию
    Показать сообщения:    

    Гайвер 2: Темный герой через торрент
    Скачать бесплатно Гайвер 2: Темный герой
    Гайвер 2: Темный герой скачать торрент
    Гайвер 2: Темный герой смотреть онлайн
    Cкачать фильм Гайвер 2: Темный герой бесплатно
    Гайвер 2: Темный герой скачать торрент в хорошем качестве
    Гайвер 2: Темный герой смотреть онлайн бесплатно в хорошем качестве


    Вы не можете начинать темы
    Вы не можете отвечать на сообщения
    Вы не можете редактировать свои сообщения
    Вы не можете удалять свои сообщения
    Вы не можете голосовать в опросах
    Вы не можете прикреплять файлы к сообщениям
    Вы можете скачивать файлы