Ссылка на приватное зеркало всего за 1$. Внимание количество ограничено!!!

iTunes

1+1

iTunes

мы

WEB-DL

1

iTunes

Чернобыль

iTunes

Ральф против интернета

Лицензия

ПШазам

Лицензия

Оно 2

Лицензия

30
pack

Вам бонус

ВАЖНО

!!Акция!!

Alien_RageХит недели

RePack

Resident Evil 21

ИГРА 18+

pack

RePack

jed

!!Акция!!

Alien_Rage

RePack

fifa19

RePack

Assassins Creed: Odyssey

RePack

NEED FOR SPEED™ PAYBACK

3 сезон

9 сезон

Бесстыжие 9 сезон

Все сериалы

все сериалы на PB.wtf

RePack

FAR CRY 5
Ребята, катастрофически не хватает 1900р. для оплаты серверов за Октябрь (всвязи с блокировками трафик упал в 3 раза), 1-2р., выручайте.
  

На семи ветрах (Станислав Ростоцкий) [1962, СССР, драма, военный, DVDRip от AVP Studio] pb.wtf

На семи ветрах через торрент pb.wtf

Размер: 746 MB | Добавлен: 10 мес. назад | Торрент скачан:4 раза
Скачать  

07-02-2019 08:27 На семи ветрах Скачать торрент  

На семи ветрах
Страна: СССР
Производство: Киностудия им. М. Горького

Жанр: драма
Год выпуска: 1962
Продолжительность: 01:40:13

Перевод: Не требуется
Cубтитры: нет
Оригинальная аудиодорожка: русский

Режиссер: Станислав Ростоцкий

В ролях:
Лариса Лужина, Вячеслав Тихонов, Вячеслав Невинный, Михаил Трояновский, Софья Пилявская, Маргарита Струнова, Лидия Савченко, Клара Лучко, Светлана Дружинина, Людмила Чурсина, Маргарита Жарова, Владимир Заманский, Леонид Быков, Валентин Печников, Анатолий Ромашин, Анатолий Игнатьев, Бимболат (Бибо) Ватаев, Виктор Павлов...
Об актёрах подробней

Описание:
Простая русская девушка Светлана приехала в захолустный городок к своему любимому. Но началась война, Игорь не встретил Светлану, а она решила остаться: ждать его возвращения и конца войны. Она ждала его всю войну там, куда он обязательно должен был вернуться. В его доме. В доме "на семи ветрах". Вскоре в этом доме разместилась редакция фронтовой газеты. Светлана была душой коллектива. А когда немцы были на подходе к городу, дом превратился в госпиталь, а Светлана стала бойцом...

Источник: DVD5 R5
Качество видео: DVDRip
Формат видео: AVI

Видео: 576х432 (4:3), 25 fps, XviD ~ 903 kbps avg, 0.145 bit/pixel
Аудио: 48 kHz, MP3 2.0, 128 kbps

Раздача от:
Общее
Полное имя : Na.semi.vetrah.1962.DVDRip-745_[New-team]_by_AVP_Studio.avi
Формат : AVI
Формат/Информация : Audio Video Interleave
Размер файла : 746 Мбайт
Продолжительность : 1 ч. 40 м.
Общий поток : 1041 Кбит/сек
Программа кодирования : VirtualDubModRus 1.5.10.2 (build 2540/release)
Библиотека кодирования : VirtualDubMod build 2540/release

Видео
Идентификатор : 0
Формат : MPEG-4 Visual
Профиль формата : Advanced Simple@L5
Настройки формата : BVOP1 / Custom Matrix
Параметр BVOP формата : 1
Параметр QPel формата : Нет
Параметр GMC формата : Без точки перехода
Параметр матрицы формата : Выборочная
Идентификатор кодека : XVID
Идентификатор кодека/Подсказка : XviD
Продолжительность : 1 ч. 40 м.
Битрейт : 903 Кбит/сек
Ширина : 576 пикселей
Высота : 432 пикселя
Соотношение сторон : 4:3
Частота кадров : 25,000 кадров/сек
Цветовое пространство : YUV
Субдискретизация насыщенности : 4:2:0
Битовая глубина : 8 бит
Тип развёртки : Прогрессивная
Метод сжатия : С потерями
Бит/(Пиксели*Кадры) : 0.145
Размер потока : 647 Мбайт (87%)
Библиотека кодирования : XviD 73

Аудио
Идентификатор : 1
Формат : MPEG Audio
Версия формата : Version 1
Профиль формата : Layer 3
Настройки формата : Joint stereo / MS Stereo
Идентификатор кодека : 55
Идентификатор кодека/Подсказка : MP3
Продолжительность : 1 ч. 40 м.
Вид битрейта : Постоянный
Битрейт : 128 Кбит/сек
Каналы : 2 канала
Частота : 48,0 КГц
Частота кадров : 41,667 кадра/сек (1152 SPF)
Метод сжатия : С потерями
Размер потока : 91,8 Мбайт (12%)
Выравнивание : Соединение по промежуткам
Продолжительность промежутка : 40 мс. (1,00 видеокадр)
Время предзагрузки промежутка : 504 мс
pb.wtf



Скачать На семи ветрах через торрент http://picplus.ru/img/1902/05/2aa0f05a.png Скачать фильм На семи ветрах через торрент бесплантно в хорошем качестве Описание:Простая русская девушка Светлана приехала в захолустный городок к своему любимому. Но началась война, Игорь не встретил Светлану, ... 9 10 1
Info! Золотая раздача, скачанное не засчитывается.
Торрент: Зарегистрирован [2019-02-07 08:27] · скачан: 4 раз
Статус: √ проверено
Размер: 746 MB
Как cкачать? Как скачать На семи ветрах через торрент | qTorrent

% Раздел Тема Автор DL S | L
Кино СССР [ 1.46 GB ] На семи ветрах [1962 СССР военный DVDRip-AVC от AVP Studio] AVP Studio Скачать
1 | 0
Кино СССР [ 1.46 GB ] На семи ветрах [1962 СССР военный DVDRip от AVP Studio] AVP Studio Скачать
1 | 0

28-11-2019 20:33  

Отключить всю рекламу на сайте

    Дорогой пользователь! Огромная просьба, поблагодарите релизера, оцените раздачу и оставьте свои комментарий, если Вы скачали На семи ветрах через торрент бесплатно! Внесите свою лепту в развитие PiratBit!
    Комментировать посты могут только пользователи прошедшие не сложную регистрацию
    Показать сообщения:    

    На семи ветрах через торрент
    Скачать бесплатно На семи ветрах
    На семи ветрах скачать торрент
    На семи ветрах смотреть онлайн
    Cкачать фильм На семи ветрах бесплатно
    На семи ветрах скачать торрент в хорошем качестве
    На семи ветрах смотреть онлайн бесплатно в хорошем качестве


    Вы не можете начинать темы
    Вы не можете отвечать на сообщения
    Вы не можете редактировать свои сообщения
    Вы не можете удалять свои сообщения
    Вы не можете голосовать в опросах
    Вы не можете прикреплять файлы к сообщениям
    Вы можете скачивать файлы