новый адрес
Ссылка на приватное зеркало всего за 1$. Внимание количество ограничено!!!

iTunes

1+1

iTunes

мы

WEB-DL

1

iTunes

Чернобыль

iTunes

Ральф против интернета

Лицензия

ПШазам

Лицензия

Оно 2

Лицензия

30
pack

Вам бонус

ВАЖНО

!!Акция!!

Alien_RageХит недели

RePack

Resident Evil 21

ИГРА 18+

pack

RePack

jed

!!Акция!!

Alien_Rage

RePack

fifa19

RePack

Assassins Creed: Odyssey

RePack

NEED FOR SPEED™ PAYBACK

3 сезон

9 сезон

Бесстыжие 9 сезон

Все сериалы

все сериалы на PB.wtf

RePack

FAR CRY 5
Ребята, катастрофически не хватает 1900р. для оплаты серверов за Октябрь (всвязи с блокировками трафик упал в 3 раза), 1-2р., выручайте.
  

На семи ветрах (Станислав Ростоцкий) [1962, СССР, драма, военный, DVDRip-AVC от AVP Studio] pb.wtf

На семи ветрах через торрент pb.wtf

Размер: 1.46 GB | Добавлен: 10 мес. назад | Торрент скачан:17 раз
Скачать  

07-02-2019 08:28 На семи ветрах Скачать торрент  

На семи ветрах
Страна: СССР
Производство: Киностудия им. М. Горького

Жанр: драма
Год выпуска: 1962
Продолжительность: 01:40:13

Перевод: Не требуется
Cубтитры: нет
Оригинальная аудиодорожка: русский

Режиссер: Станислав Ростоцкий

В ролях:
Лариса Лужина, Вячеслав Тихонов, Вячеслав Невинный, Михаил Трояновский, Софья Пилявская, Маргарита Струнова, Лидия Савченко, Клара Лучко, Светлана Дружинина, Людмила Чурсина, Маргарита Жарова, Владимир Заманский, Леонид Быков, Валентин Печников, Анатолий Ромашин, Анатолий Игнатьев, Бимболат (Бибо) Ватаев, Виктор Павлов...
Об актёрах подробней

Описание:
Простая русская девушка Светлана приехала в захолустный городок к своему любимому. Но началась война, Игорь не встретил Светлану, а она решила остаться: ждать его возвращения и конца войны. Она ждала его всю войну там, куда он обязательно должен был вернуться. В его доме. В доме "на семи ветрах". Вскоре в этом доме разместилась редакция фронтовой газеты. Светлана была душой коллектива. А когда немцы были на подходе к городу, дом превратился в госпиталь, а Светлана стала бойцом...

Источник: DVD5 R5
Качество видео: DVDRip-AVC
Формат видео: MKV

Видео: 704->752х564 (4:3), 25 fps, H264 ~ 1698 kbps avg, 0.171 bit/pixel
Аудио: 48 kHz, Dolby Digital AC3 5.1, 384 kbps

Раздача от:
Общее
Полное имя : Na.semi.vetrah.1962.DVDRip-AVC_[New-team]_by_AVP_Studio.mkv
Формат : Matroska
Версия формата : Version 2
Размер файла : 1,46 Гбайт
Продолжительность : 1 ч. 40 м.
Общий поток : 2084 Кбит/сек
Дата кодирования : UTC 2019-02-04 19:30:19
Программа кодирования : mkvmerge v6.1.0 ('Old Devil') built on Mar 4 2013 09:10:42
Библиотека кодирования : libebml v1.3.0 + libmatroska v1.4.0

Видео
Идентификатор : 1
Формат : AVC
Формат/Информация : Advanced Video Codec
Профиль формата : High@L4.1
Настройки формата : CABAC / 10 Ref Frames
Параметр CABAC формата : Да
Параметр RefFrames формата : 10 кадров
Идентификатор кодека : V_MPEG4/ISO/AVC
Продолжительность : 1 ч. 40 м.
Битрейт : 1698 Кбит/сек
Ширина : 704 пикселя
Высота : 564 пикселя
Соотношение сторон : 4:3
Режим частоты кадров : Постоянный
Частота кадров : 25,000 кадров/сек
Цветовое пространство : YUV
Субдискретизация насыщенности : 4:2:0
Битовая глубина : 8 бит
Тип развёртки : Прогрессивная
Бит/(Пиксели*Кадры) : 0.171
Размер потока : 1,16 Гбайт (80%)
Библиотека кодирования : x264 core 157 r2932 303c484
Настройки программы : cabac=1 / ref=10 / deblock=1:-2:-1 / analyse=0x3:0x113 / me=umh / subme=10 / psy=1 / psy_rd=1.00:0.00 / mixed_ref=1 / me_range=32 / chroma_me=1 / trellis=2 / 8x8dct=1 / cqm=0 / deadzone=21,11 / fast_pskip=1 / chroma_qp_offset=-2 / threads=6 / lookahead_threads=1 / sliced_threads=0 / nr=0 / decimate=0 / interlaced=0 / bluray_compat=0 / constrained_intra=0 / bframes=8 / b_pyramid=2 / b_adapt=2 / b_bias=0 / direct=3 / weightb=1 / open_gop=0 / weightp=2 / keyint=250 / keyint_min=25 / scenecut=40 / intra_refresh=0 / rc=2pass / mbtree=0 / bitrate=1698 / ratetol=1.0 / qcomp=0.60 / qpmin=0 / qpmax=69 / qpstep=4 / cplxblur=20.0 / qblur=0.5 / ip_ratio=1.40 / pb_ratio=1.30 / aq=1:1.00
Default : Да
Forced : Нет

Аудио
Идентификатор : 2
Формат : AC-3
Формат/Информация : Audio Coding 3
Коммерческое название : Dolby Digital
Идентификатор кодека : A_AC3
Продолжительность : 1 ч. 40 м.
Вид битрейта : Постоянный
Битрейт : 384 Кбит/сек
Каналы : 6 каналов
Channel layout : L R C LFE Ls Rs
Частота : 48,0 КГц
Частота кадров : 31,250 кадров/сек (1536 SPF)
Битовая глубина : 16 бит
Метод сжатия : С потерями
Размер потока : 275 Мбайт (18%)
Default : Да
Forced : Нет
pb.wtf



Скачать На семи ветрах через торрент http://picplus.ru/img/1902/05/2aa0f05a.png Скачать фильм На семи ветрах через торрент бесплантно в хорошем качестве Описание:Простая русская девушка Светлана приехала в захолустный городок к своему любимому. Но началась война, Игорь не встретил Светлану, ... 10 10 1
Info! Золотая раздача, скачанное не засчитывается.
Торрент: Зарегистрирован [2019-02-07 08:28] · скачан: 17 раз
Статус: √ проверено
Размер: 1.46 GB
Как cкачать? Как скачать На семи ветрах через торрент | qTorrent

% Раздел Тема Автор DL S | L
Кино СССР [ 746 MB ] На семи ветрах [1962 СССР военный DVDRip от AVP Studio] AVP Studio Скачать
1 | 0
Кино СССР [ 1.46 GB ] На семи ветрах [1962 СССР военный DVDRip от AVP Studio] AVP Studio Скачать
1 | 0

28-11-2019 20:33  

Отключить всю рекламу на сайте

    Дорогой пользователь! Огромная просьба, поблагодарите релизера, оцените раздачу и оставьте свои комментарий, если Вы скачали На семи ветрах через торрент бесплатно! Внесите свою лепту в развитие PiratBit!
    Комментировать посты могут только пользователи прошедшие не сложную регистрацию
    Показать сообщения:    

    На семи ветрах через торрент
    Скачать бесплатно На семи ветрах
    На семи ветрах скачать торрент
    На семи ветрах смотреть онлайн
    Cкачать фильм На семи ветрах бесплатно
    На семи ветрах скачать торрент в хорошем качестве
    На семи ветрах смотреть онлайн бесплатно в хорошем качестве


    Вы не можете начинать темы
    Вы не можете отвечать на сообщения
    Вы не можете редактировать свои сообщения
    Вы не можете удалять свои сообщения
    Вы не можете голосовать в опросах
    Вы не можете прикреплять файлы к сообщениям
    Вы можете скачивать файлы