Ссылка на приватное зеркало всего за 1$. Внимание количество ограничено!!!

OK

1+1

iTunes

мы

OK

1

WEB-DLRip

Джокер

Пифагор

Ведьмак / The Witcher сериал

iTunes

ПШазам

ОК

Оно 2

iTunes

30
pack

Вам бонус

ВАЖНО

!!Акция!!

Alien_RageХит недели

RePack

Resident Evil 21

ИГРА 18+

pack

RePack

jed

RePack

fifa19

RePack

Assassins Creed: Odyssey

RePack

NEED FOR SPEED™ PAYBACK

4 сезон

9 сезон

Бесстыжие 9 сезон

Все сериалы

все сериалы на PB.wtf

RePack

FAR CRY 5
  

Британия 18 / uk18 (Эндрю Тирнан) [2017, ужасы, триллер, драма, WEB-DL 720p] MVO ["Синема УС"] pb.wtf

Британия 18 через торрент pb.wtf

Размер: 2.87 GB | Добавлен: 11 мес. назад | Торрент скачан:25 раз
Скачать  

07-02-2019 13:28 Британия 18 Скачать торрент  

Британия 18 / uk18Год выпуска: 2017
Страна: Великобритания
Жанр: ужасы, триллер, драма
Продолжительность: 01:27:05
Перевод: Любительский (многоголосый) | "Синема УС"
Субтитры: отсутствуют

Режиссер: Эндрю Тирнан

rating

В ролях:

Шона МакУильямс, Джэми Беддард, Иэн Харт, Жан-Марк Барр, Тим Бентинк, Джек Рот, Джейсон Уильямсон, Ниша К. Наяр, Шон Сернов, Саймон Бальфур

Описание:

Создатель конспирологических документальных фильмов начинает подозревать, что тайная правительственная организация промыла ей мозги, и решает нанести ответный удар.

Качество: WEB-DL 720p
Формат: MKV

Видео: h.264,4 324 Кбит/с, 1280x690
Аудио#1: Русский, (AC3, 2 ch, 384 Кбит/с)
скриншот  скриншот  скриншот  

Общее
Уникальный идентификатор : 176916694664843706607274054442242983797 (0x8518EA7E6EAA6162B16D9706755EC775)
Полное имя : E:\торреннты\UK18.2O17.P.WEB_DL.72Op.mkv
Формат : Matroska
Версия формата : Version 2
Размер файла : 2,87 Гбайт
Продолжительность : 1 ч. 27 м.
Режим общего битрейта : Переменный
Общий поток : 4710 Кбит/сек
Дата кодирования : UTC 2019-02-07 07:34:06
Программа кодирования : mkvmerge v8.3.0 ('Over the Horizon') 64bit
Библиотека кодирования : libebml v1.3.1 + libmatroska v1.4.2

Видео
Идентификатор : 1
Формат : AVC
Формат/Информация : Advanced Video Codec
Профиль формата : High@L4.1
Настройки формата : CABAC / 4 Ref Frames
Параметр CABAC формата : Да
Параметр RefFrames формата : 4 кадра
Идентификатор кодека : V_MPEG4/ISO/AVC
Продолжительность : 1 ч. 27 м.
Вид битрейта : Переменный
Битрейт : 4324 Кбит/сек
Максимальный битрейт : 5000 Кбит/сек
Ширина : 1280 пикселей
Высота : 690 пикселей
Соотношение сторон : 1,85:1
Режим частоты кадров : Постоянный
Частота кадров : 23,976 (24000/1001) кадра/сек
Стандарт вещания : Component
Цветовое пространство : YUV
Субдискретизация насыщенности : 4:2:0
Битовая глубина : 8 бит
Тип развёртки : Прогрессивная
Бит/(Пиксели*Кадры) : 0.200
Размер потока : 2,57 Гбайт (90%)
Default : Да
Forced : Нет
Цветовой диапазон : Limited
Основные цвета : BT.709
Характеристики трансфера : BT.709
Коэффициенты матрицы : BT.709

Аудио
Идентификатор : 2
Формат : AC-3
Формат/Информация : Audio Coding 3
Идентификатор кодека : A_AC3
Продолжительность : 1 ч. 27 м.
Вид битрейта : Постоянный
Битрейт : 384 Кбит/сек
Каналы : 2 канала
Расположение каналов : Front: L R
Частота : 48,0 КГц
Частота кадров : 31,250 кадров/сек (1536 SPF)
Битовая глубина : 16 бит
Метод сжатия : С потерями
Размер потока : 239 Мбайт (8%)
ServiceKind/String : Complete Main
Default : Да
Forced : Нет

pb.wtf



Скачать Британия 18 через торрент https://b.radikal.ru/b41/1902/aa/36bde2a889a7.jpg Скачать фильм Британия 18 через торрент бесплантно в хорошем качестве Описание: Создатель конспирологических документальных фильмов начинает подозревать, что тайная правительственная организация промыла ей ... 9 10 4
Торрент: Зарегистрирован [2019-02-07 13:28] · скачан: 25 раз
Статус: T временная
Размер: 2.87 GB
Как cкачать? Как скачать Британия 18 через торрент | qTorrent

% Раздел Тема Автор DL S | L
T Фильмы (мультфильмы) cо спонсором показа (Новинки AVI/MKV) [ 1.37 GB ] Британия 18 / uk18 [2017 WEB-DLRip] MVO ["Синема УС"] bober100 Скачать
1 | 0

28-11-2019 20:33  

Отключить всю рекламу на сайте

    Дорогой пользователь! Огромная просьба, поблагодарите релизера, оцените раздачу и оставьте свои комментарий, если Вы скачали Британия 18 через торрент бесплатно! Внесите свою лепту в развитие PiratBit!
    Комментировать посты могут только пользователи прошедшие не сложную регистрацию
    Показать сообщения:    

    Британия 18 через торрент
    Скачать бесплатно Британия 18
    Британия 18 скачать торрент
    Британия 18 смотреть онлайн
    Cкачать фильм Британия 18 бесплатно
    Британия 18 скачать торрент в хорошем качестве
    Британия 18 смотреть онлайн бесплатно в хорошем качестве


    Вы не можете начинать темы
    Вы не можете отвечать на сообщения
    Вы не можете редактировать свои сообщения
    Вы не можете удалять свои сообщения
    Вы не можете голосовать в опросах
    Вы не можете прикреплять файлы к сообщениям
    Вы можете скачивать файлы