Ссылка на приватное зеркало всего за 1$. Внимание количество ограничено!!!

OK

1+1

iTunes

мы

OK

1

WEB-DLRip

Джокер

Пифагор

Ведьмак / The Witcher сериал

iTunes

ПШазам

ОК

Оно 2

iTunes

30
pack

Вам бонус

ВАЖНО

!!Акция!!

Alien_RageХит недели

RePack

Resident Evil 21

ИГРА 18+

pack

RePack

jed

RePack

fifa19

RePack

Assassins Creed: Odyssey

RePack

NEED FOR SPEED™ PAYBACK

4 сезон

9 сезон

Бесстыжие 9 сезон

Все сериалы

все сериалы на PB.wtf

RePack

FAR CRY 5
  

Метод Менкоффа / The Menkoff Method (Дэвид Паркер) [2016, фэнтези, комедия, криминал, WEB-DL 720p] MVO ["Синема УС"] pb.wtf

Метод Менкоффа через торрент pb.wtf

Раздают: 1 [ 0 KB/s ]
Размер: 3.56 GB | Добавлен: 11 мес. назад | Торрент скачан:72 раза
Скачать  

07-02-2019 13:53 Метод Менкоффа Скачать торрент  

Метод Менкоффа / The Menkoff Method Год выпуска: 2016
Страна: Австралия
Жанр: фэнтези, комедия, криминал
Продолжительность: 01:27:25
Перевод: Любительский (многоголосый) | "Синема УС"
Субтитры: отсутствуют

Режиссер: Дэвид Паркер

rating

В ролях:

Ноа Тейлор, Роберт Тейлор, Лачлан Вудс, Джессика Кларк, Катрин МакКлементс, Эндрю Райан, Малкольм Кеннард, Дэвид Уайтели, Чан Гриффин, Джейн Олсоп

Описание:

Коварный русский мошенник Макс Менкофф собирается превратить сотрудников одного из австралийских банков в зомби, а потом получить деньги по их страховкам. Ему бросают вызов скромный любитель комиксов Дэвид и амбициозная помощница директора Руби.

Качество: WEB-DL 720p
Формат: MKV

Видео: h.264,5 448 kb/s, 1280x536
Аудио: Русский, (AC3, 2 ch, 384 Кбит/с)
скриншот  скриншот  скриншот  

Общее
Уникальный идентификатор : 239913453609738520359920260197322944858 (0xB47DA6830747E5D997D29FAD4E99715A)
Полное имя : E:\торреннты\The.Menkoff.Method.2016.P.WEB-DL.72Op_KOSHARA.mkv
Формат : Matroska
Версия формата : Version 2
Размер файла : 3,56 Гбайт
Продолжительность : 1 ч. 27 м.
Режим общего битрейта : Переменный
Общий поток : 5834 Кбит/сек
Дата кодирования : UTC 2019-02-07 12:28:17
Программа кодирования : mkvmerge v8.3.0 ('Over the Horizon') 64bit
Библиотека кодирования : libebml v1.3.1 + libmatroska v1.4.2

Видео
Идентификатор : 1
Формат : AVC
Формат/Информация : Advanced Video Codec
Профиль формата : High@L4.1
Настройки формата : CABAC / 4 Ref Frames
Параметр CABAC формата : Да
Параметр RefFrames формата : 4 кадра
Идентификатор кодека : V_MPEG4/ISO/AVC
Продолжительность : 1 ч. 27 м.
Вид битрейта : Переменный
Битрейт : 5448 Кбит/сек
Максимальный битрейт : 6000 Кбит/сек
Ширина : 1280 пикселей
Высота : 536 пикселей
Соотношение сторон : 2,40:1
Режим частоты кадров : Постоянный
Частота кадров : 23,976 (24000/1001) кадра/сек
Стандарт вещания : Component
Цветовое пространство : YUV
Субдискретизация насыщенности : 4:2:0
Битовая глубина : 8 бит
Тип развёртки : Прогрессивная
Бит/(Пиксели*Кадры) : 0.324
Размер потока : 3,26 Гбайт (91%)
Default : Да
Forced : Нет
Цветовой диапазон : Limited
Основные цвета : BT.709
Характеристики трансфера : BT.709
Коэффициенты матрицы : BT.709

Аудио
Идентификатор : 2
Формат : AC-3
Формат/Информация : Audio Coding 3
Идентификатор кодека : A_AC3
Продолжительность : 1 ч. 27 м.
Вид битрейта : Постоянный
Битрейт : 384 Кбит/сек
Каналы : 2 канала
Расположение каналов : Front: L R
Частота : 48,0 КГц
Частота кадров : 31,250 кадров/сек (1536 SPF)
Битовая глубина : 16 бит
Метод сжатия : С потерями
Размер потока : 240 Мбайт (7%)
ServiceKind/String : Complete Main
Default : Да
Forced : Нет

pb.wtf



Скачать Метод Менкоффа через торрент https://d.radikal.ru/d10/1902/53/c71704cb12a3.jpg Скачать фильм Метод Менкоффа через торрент бесплантно в хорошем качестве Описание: Коварный русский мошенник Макс Менкофф собирается превратить сотрудников одного из австралийских банков в зомби, а потом получить ... 10 10 4
Торрент: Зарегистрирован [2019-02-07 13:53] · скачан: 72 раз
Статус: T временная
Размер: 3.56 GB
Как cкачать? Как скачать Метод Менкоффа через торрент | qTorrent

% Раздел Тема Автор DL S | L
T Фильмы (мультфильмы) cо спонсором показа (Новинки AVI/MKV) [ 1.37 GB ] Метод Менкоффа / The Menkoff Method [2016 WEB-DLRip] MVO ["Синема УС"] bober100 Скачать
1 | 0

28-11-2019 20:33  

Отключить всю рекламу на сайте


09-02-2019 05:05 Метод Менкоффа Скачать торрент  

Да уж...pb.wtf



    Дорогой пользователь! Огромная просьба, поблагодарите релизера, оцените раздачу и оставьте свои комментарий, если Вы скачали Метод Менкоффа через торрент бесплатно! Внесите свою лепту в развитие PiratBit!
    Комментировать посты могут только пользователи прошедшие не сложную регистрацию
    Показать сообщения:    

    Метод Менкоффа через торрент
    Скачать бесплатно Метод Менкоффа
    Метод Менкоффа скачать торрент
    Метод Менкоффа смотреть онлайн
    Cкачать фильм Метод Менкоффа бесплатно
    Метод Менкоффа скачать торрент в хорошем качестве
    Метод Менкоффа смотреть онлайн бесплатно в хорошем качестве


    Вы не можете начинать темы
    Вы не можете отвечать на сообщения
    Вы не можете редактировать свои сообщения
    Вы не можете удалять свои сообщения
    Вы не можете голосовать в опросах
    Вы не можете прикреплять файлы к сообщениям
    Вы можете скачивать файлы