новый адрес
Ссылка на приватное зеркало всего за 1$. Внимание количество ограничено!!!

iTunes

1+1

iTunes

мы

WEB-DL

1

iTunes

Чернобыль

iTunes

Ральф против интернета

Лицензия

ПШазам

Лицензия

Оно 2

Лицензия

30
pack

Вам бонус

ВАЖНО

!!Акция!!

Alien_RageХит недели

RePack

Resident Evil 21

ИГРА 18+

pack

RePack

jed

!!Акция!!

Alien_Rage

RePack

fifa19

RePack

Assassins Creed: Odyssey

RePack

NEED FOR SPEED™ PAYBACK

3 сезон

9 сезон

Бесстыжие 9 сезон

Все сериалы

все сериалы на PB.wtf

RePack

FAR CRY 5
Ребята, катастрофически не хватает 1900р. для оплаты серверов за Октябрь (всвязи с блокировками трафик упал в 3 раза), 1-2р., выручайте.
  

Ничего хорошего в отеле «Эль рояль» / Bad Times at the El Royale (Дрю Годдард) [2018 г., Триллер, драма, криминал, детектив, BDRip-AVC] DUB [Лицензия BD EUR] pb.wtf

Ничего хорошего в отеле «Эль рояль» через торрент pb.wtf

Раздают: 1 [ 0 KB/s ]
Размер: 1.46 GB | Добавлен: 9 мес. назад | Торрент скачан:190 раз
Скачать  

07-02-2019 15:36 Ничего хорошего в отеле «Эль рояль» Скачать торрент  

Ничего хорошего в отеле «Эль рояль» / Bad Times at the El Royale

Год выпуска: 2018
Страна: США
Жанр: Триллер, драма, криминал, детектив
Продолжительность: 02:21:37
Перевод: Дубляж [ Blu-ray EUR]
Субтитры: русские (полные + форс.)

Режиссер: Дрю Годдард

rating

В ролях: Джефф Бриджес (Father Daniel Flynn / Dock O'Kelly), Синтиа Эриво (Darlene Sweet), Дакота Джонсон (Emily Summerspring), Джон Хэмм (Laramie Seymour Sullivan / Dwight Broadbeck), Крис Хемсворт (Billy Lee), Кэйли Спэни (Rose Summerspring), Льюис Пуллман (Miles Miller), Ник Офферман (Felix O'Kelly), Ксавье Долан (Buddy Sunday), Шей Уигэм (Dr. Woodbury Laurence), Марк О’Брайэн (Larsen Rogers), Чарльз Халфорд (Sammy Wilds)

Описание: Семь незнакомцев, у каждого из которых есть своя тайна, встречаются в заброшенном отеле «Эль Рояль» на озере Тахо. И этой ночью у каждого будет шанс на искупление... прежде чем всё пойдет к чертям.

Качество: BDRip-AVC
Формат: MKV
Видео кодек: AVC
Аудио кодек: AC3
Видео: 960x402 (2.40:1), 23.976 fps, AVC ~ 1030 Кbps avg, 0.111 bit/pixel
Аудио#1: AC3, 48 kHz, 6 ch, ~448.00 kbps avg | русский | Профессиональный (полное дублирование) | Blu-ray EUR

Общее
Уникальный идентификатор : 208654722091714642350500636651373278569 (0x9CF9700F2AA24617A30625D6F09D3569)
Полное имя : D:/Фильмы/Nichego.Horoshego.v.Otele.El.Royal.2018.RUS.BDRip.x264.-HELLYWOOD.mkv
Формат : Matroska
Версия формата : Version 4
Размер файла : 1,46 Гбайт
Продолжительность : 2 ч. 21 м.
Общий поток : 1476 Кбит/сек
Название фильма : Bad Times at the El Royale (2018)
Дата кодирования : UTC 2019-02-07 08:28:56
Программа кодирования : mkvmerge v5.9.0 ('On The Loose') built on Dec 15 2012 16:39:58
Библиотека кодирования : libebml v1.3.0 + libmatroska v1.4.0

Видео
Идентификатор : 1
Формат : AVC
Формат/Информация : Advanced Video Codec
Профиль формата : High@L4.1
Настройки формата : CABAC / 12 Ref Frames
Параметр CABAC формата : Да
Параметр RefFrames формата : 12 кадров
Идентификатор кодека : V_MPEG4/ISO/AVC
Продолжительность : 2 ч. 21 м.
Битрейт : 1030 Кбит/сек
Ширина : 960 пикселей
Высота : 402 пикселя
Соотношение сторон : 2,40:1
Режим частоты кадров : Постоянный
Частота кадров : 23,976 (24000/1001) кадра/сек
Цветовое пространство : YUV
Субдискретизация насыщенности : 4:2:0
Битовая глубина : 8 бит
Тип развёртки : Прогрессивная
Бит/(Пиксели*Кадры) : 0.111
Размер потока : 1011 Мбайт (68%)
Заголовок : potroks
Библиотека кодирования : x264 core 157 r2935 545de2f
Настройки программы : cabac=1 / ref=12 / deblock=1:-2:-2 / analyse=0x3:0x133 / me=umh / subme=11 / psy=1 / psy_rd=1.00:0.05 / mixed_ref=1 / me_range=32 / chroma_me=1 / trellis=2 / 8x8dct=1 / cqm=0 / deadzone=21,11 / fast_pskip=0 / chroma_qp_offset=-3 / threads=9 / lookahead_threads=2 / sliced_threads=0 / nr=0 / decimate=0 / interlaced=0 / bluray_compat=0 / constrained_intra=0 / bframes=12 / b_pyramid=2 / b_adapt=2 / b_bias=0 / direct=3 / weightb=1 / open_gop=0 / weightp=2 / keyint=240 / keyint_min=23 / scenecut=40 / intra_refresh=0 / rc_lookahead=100 / rc=2pass / mbtree=0 / bitrate=1030 / ratetol=1.0 / qcomp=0.70 / qpmin=0 / qpmax=69 / qpstep=4 / cplxblur=20.0 / qblur=0.5 / vbv_maxrate=50000 / vbv_bufsize=50000 / nal_hrd=none / filler=0 / ip_ratio=1.40 / pb_ratio=1.30 / aq=1:0.80
Язык : English
Default : Да
Forced : Нет

Аудио
Идентификатор : 2
Формат : AC-3
Формат/Информация : Audio Coding 3
Коммерческое название : Dolby Digital
Идентификатор кодека : A_AC3
Продолжительность : 2 ч. 21 м.
Вид битрейта : Постоянный
Битрейт : 448 Кбит/сек
Каналы : 6 каналов
Channel layout : L R C LFE Ls Rs
Частота : 48,0 КГц
Частота кадров : 31,250 кадров/сек (1536 SPF)
Битовая глубина : 16 бит
Метод сжатия : С потерями
Размер потока : 454 Мбайт (30%)
Заголовок : Dub | DD 5.1 @ 448 kbps - Blu-ray CEE
Язык : Russian
ServiceKind/String : Complete Main
Default : Да
Forced : Нет

Текст #1
Идентификатор : 3
Формат : UTF-8
Идентификатор кодека : S_TEXT/UTF8
Идентификатор кодека/Информация : UTF-8 Plain Text
Заголовок : Forced
Язык : Russian
Default : Да
Forced : Нет

Текст #2
Идентификатор : 4
Формат : UTF-8
Идентификатор кодека : S_TEXT/UTF8
Идентификатор кодека/Информация : UTF-8 Plain Text
Заголовок : iTunes
Язык : Russian
Default : Нет
Forced : Нет

Меню
00:00:00.000 : en:Chapter 01
00:05:00.000 : en:Chapter 02
00:10:00.000 : en:Chapter 03
00:15:00.000 : en:Chapter 04
00:20:00.000 : en:Chapter 05
00:25:00.000 : en:Chapter 06
00:30:00.000 : en:Chapter 07
00:35:00.000 : en:Chapter 08
00:40:00.000 : en:Chapter 09
00:45:00.000 : en:Chapter 10
00:50:00.000 : en:Chapter 11
00:55:00.000 : en:Chapter 12
01:00:00.000 : en:Chapter 13
01:05:00.000 : en:Chapter 14
01:10:00.000 : en:Chapter 15
01:15:00.000 : en:Chapter 16
01:20:00.000 : en:Chapter 17
01:25:00.000 : en:Chapter 18
01:30:00.000 : en:Chapter 19
01:35:00.000 : en:Chapter 20
01:40:00.000 : en:Chapter 21
01:45:00.000 : en:Chapter 22
01:50:00.000 : en:Chapter 23
01:55:00.000 : en:Chapter 24
02:00:00.000 : en:Chapter 25
02:05:00.000 : en:Chapter 26
02:10:00.000 : en:Chapter 27
02:15:00.000 : en:Chapter 28
02:20:00.000 : en:Chapter 29
скриншот   скриншот   скриншот   скриншот  

pb.wtf



Скачать Ничего хорошего в отеле «Эль рояль» через торрент https://b.radikal.ru/b22/1902/0c/27cb7b190581.png Скачать фильм Ничего хорошего в отеле «Эль рояль» через торрент бесплантно в хорошем качестве Описание: Семь незнакомцев, у каждого из которых есть своя тайна, встречаются в заброшенном отеле «Эль Рояль» на озере Тахо. И этой ночью у ... 8.8 10 5
Торрент: Зарегистрирован [2019-02-07 15:36] · скачан: 190 раз
Статус: √ проверено
Размер: 1.46 GB
Как cкачать? Как скачать Ничего хорошего в отеле «Эль рояль» через торрент | qTorrent

% Раздел Тема Автор DL S | L
Ultra HD (UHD: 2K, 4K, 8K) — видео сверхвысокой чёткости [ 31.2 GB ] Ничего хорошего в отеле «Эль рояль» / Bad Times at the El Royale [2018 UHD BDRip 2160p] [HDR10 sheker187 Скачать
1 | 0
Фильмы (HD 720p, 1080p) (48-60 fps) [ 19.98 GB ] Ничего хорошего в отеле «Эль рояль» / Bad Times at the El Royale [2018 BDRip 1080p 60 fps] sheker187 Скачать
1 | 0
Фильмы 2018 [DVDrip, WEB-DLRip, HDrip] (DUB, MVO) [ 1.46 GB ] Ничего хорошего в отеле «Эль рояль» / Bad Times at the El Royale [2018 BDRip] - [] Twi7ter Скачать
1 | 0
Фильмы [HD 720p, 1080p] (Хороший звук DUB, MVO) [ 15.35 GB ] Ничего хорошего в отеле «Эль рояль» / Bad Times at the El Royale [2018 BDRip 1080p] DUB [] + MVO [HDRezka Studio] + AVO [Яроцкий] sheker187 Скачать
2 | 0
Ultra HD (UHD: 2K, 4K, 8K) — видео сверхвысокой чёткости [ 56.4 GB ] Ничего хорошего в отеле «Эль рояль» / Bad Times at the El Royale [2018 UHD BDRemux 2160p] DUB + MVO + AVO sheker187 Скачать
1 | 0
Ultra HD (UHD: 2K, 4K, 8K) — видео сверхвысокой чёткости [ 56.41 GB ] Ничего хорошего в отеле «Эль рояль» / Bad Times at the El Royale [2018 UHD Blu-ray 2160p] [HDR10 sheker187 Скачать
1 | 0
Ultra HD (UHD: 2K, 4K, 8K) — видео сверхвысокой чёткости [ 19.85 GB ] Ничего хорошего в отеле «Эль рояль» / Bad Times at the El Royale [2018 UHD BDRip 2160p] DUB [] sheker187 Скачать
1 | 0

28-11-2019 20:33  

Отключить всю рекламу на сайте

    Дорогой пользователь! Огромная просьба, поблагодарите релизера, оцените раздачу и оставьте свои комментарий, если Вы скачали Ничего хорошего в отеле «Эль рояль» через торрент бесплатно! Внесите свою лепту в развитие PiratBit!
    Комментировать посты могут только пользователи прошедшие не сложную регистрацию
    Показать сообщения:    

    Ничего хорошего в отеле «Эль рояль» через торрент
    Скачать бесплатно Ничего хорошего в отеле «Эль рояль»
    Ничего хорошего в отеле «Эль рояль» скачать торрент
    Ничего хорошего в отеле «Эль рояль» смотреть онлайн
    Cкачать фильм Ничего хорошего в отеле «Эль рояль» бесплатно
    Ничего хорошего в отеле «Эль рояль» скачать торрент в хорошем качестве
    Ничего хорошего в отеле «Эль рояль» смотреть онлайн бесплатно в хорошем качестве


    Вы не можете начинать темы
    Вы не можете отвечать на сообщения
    Вы не можете редактировать свои сообщения
    Вы не можете удалять свои сообщения
    Вы не можете голосовать в опросах
    Вы не можете прикреплять файлы к сообщениям
    Вы можете скачивать файлы