Ссылка на приватное зеркало всего за 1$. Внимание количество ограничено!!!

OK

1+1

iTunes

мы

OK

1

WEB-DLRip

Джокер

Пифагор

Ведьмак / The Witcher сериал

iTunes

ПШазам

ОК

Оно 2

iTunes

30
pack

Вам бонус

ВАЖНО

!!Акция!!

Alien_RageХит недели

RePack

Resident Evil 21

ИГРА 18+

pack

RePack

jed

RePack

fifa19

RePack

Assassins Creed: Odyssey

RePack

NEED FOR SPEED™ PAYBACK

4 сезон

9 сезон

Бесстыжие 9 сезон

Все сериалы

все сериалы на PB.wtf

RePack

FAR CRY 5
  

6-й друг / The 6th Friend (Летия Клаустон) [2016, Ужасы, WEB-DL 720p] MVO ["Синема УС"] pb.wtf

6-й друг через торрент pb.wtf

Раздают: 1 [ 0 KB/s ]
Размер: 3.45 GB | Добавлен: 11 мес. назад | Торрент скачан:109 раз
Скачать  

08-02-2019 08:14 6-й друг Скачать торрент  

6-й друг / The 6th Friend Год выпуска: 2016
Страна: США
Жанр: Ужасы
Продолжительность: 01:26:23
Перевод: Любительский (многоголосый) | "Синема УС"
Субтитры: отсутствуют

Режиссер: Летия Клаустон

rating

В ролях:

Джэми Бернадетт, Чантелл Альберс, Доминик Суэйн, Джессика Моррис, Таня Нолан, Давид Вильяда, Тина Коул, Джек Коллисон, Мэттью Клостон, Моник Розарио

Описание:

Шесть лучших подруг по колледжу закатывают свою собственную частную вечеринку по случаю вручения дипломов. Все идет просто отлично, пока одна из девушек не заказывает «нечто особенное» у наркодилера, появившегося на вечеринке. Прежде чем ночь закончится, этому «поставщику смерти» предстоит испытать на себе ужасную месть из-за того, что он учинил с их подругой.

Пять лет спустя подруги собираются вновь. На этот раз девушки столкнутся с гораздо большим ужасом и кровопролитием...

Качество: WEB-DL 720p
Формат: MKV

Видео: h.263, 5 338 kb/s, 1280x536
Аудио: Русский, (AC3, 2 ch, 384 Кбит/с)
скриншот  скриншот  скриншот  

Общее
Уникальный идентификатор : 227127623863977724684109191322136341197 (0xAADF306F647EC2C2AEF11EF7F52DEACD)
Полное имя : E:\торреннты\The.6th.Friend.2016.P.WEB-DL.72Op_KOSHARA.mkv
Формат : Matroska
Версия формата : Version 2
Размер файла : 3,45 Гбайт
Продолжительность : 1 ч. 26 м.
Режим общего битрейта : Переменный
Общий поток : 5724 Кбит/сек
Дата кодирования : UTC 2019-02-06 20:23:11
Программа кодирования : mkvmerge v8.3.0 ('Over the Horizon') 64bit
Библиотека кодирования : libebml v1.3.1 + libmatroska v1.4.2

Видео
Идентификатор : 1
Формат : AVC
Формат/Информация : Advanced Video Codec
Профиль формата : High@L4.1
Настройки формата : CABAC / 4 Ref Frames
Параметр CABAC формата : Да
Параметр RefFrames формата : 4 кадра
Идентификатор кодека : V_MPEG4/ISO/AVC
Продолжительность : 1 ч. 26 м.
Вид битрейта : Переменный
Битрейт : 5338 Кбит/сек
Максимальный битрейт : 6000 Кбит/сек
Ширина : 1280 пикселей
Высота : 536 пикселей
Соотношение сторон : 2,40:1
Режим частоты кадров : Постоянный
Частота кадров : 23,976 (24000/1001) кадра/сек
Стандарт вещания : Component
Цветовое пространство : YUV
Субдискретизация насыщенности : 4:2:0
Битовая глубина : 8 бит
Тип развёртки : Прогрессивная
Бит/(Пиксели*Кадры) : 0.318
Размер потока : 3,15 Гбайт (91%)
Default : Да
Forced : Нет
Цветовой диапазон : Limited
Основные цвета : BT.709
Характеристики трансфера : BT.709
Коэффициенты матрицы : BT.709

Аудио
Идентификатор : 2
Формат : AC-3
Формат/Информация : Audio Coding 3
Идентификатор кодека : A_AC3
Продолжительность : 1 ч. 26 м.
Вид битрейта : Постоянный
Битрейт : 384 Кбит/сек
Каналы : 2 канала
Расположение каналов : Front: L R
Частота : 48,0 КГц
Частота кадров : 31,250 кадров/сек (1536 SPF)
Битовая глубина : 16 бит
Метод сжатия : С потерями
Размер потока : 237 Мбайт (7%)
ServiceKind/String : Complete Main
Default : Да
Forced : Нет

pb.wtf



Скачать 6-й друг через торрент https://d.radikal.ru/d39/1902/80/cd062f316516.jpg Скачать фильм 6-й друг через торрент бесплантно в хорошем качестве Описание: Шесть лучших подруг по колледжу закатывают свою собственную частную вечеринку по случаю вручения дипломов. Все идет просто ... 9.2 10 6
Торрент: Зарегистрирован [2019-02-08 08:14] · скачан: 109 раз
Статус: T временная
Размер: 3.45 GB
Как cкачать? Как скачать 6-й друг через торрент | qTorrent

% Раздел Тема Автор DL S | L
T Фильмы (мультфильмы) cо спонсором показа (Новинки AVI/MKV) [ 1.36 GB ] 6-й друг / The 6th Friend [2016 WEB-DLRip] MVO ["Синема УС"] bober100 Скачать
1 | 0

28-11-2019 20:33  

Отключить всю рекламу на сайте

    Дорогой пользователь! Огромная просьба, поблагодарите релизера, оцените раздачу и оставьте свои комментарий, если Вы скачали 6-й друг через торрент бесплатно! Внесите свою лепту в развитие PiratBit!
    Комментировать посты могут только пользователи прошедшие не сложную регистрацию
    Показать сообщения:    

    6-й друг через торрент
    Скачать бесплатно 6-й друг
    6-й друг скачать торрент
    6-й друг смотреть онлайн
    Cкачать фильм 6-й друг бесплатно
    6-й друг скачать торрент в хорошем качестве
    6-й друг смотреть онлайн бесплатно в хорошем качестве


    Вы не можете начинать темы
    Вы не можете отвечать на сообщения
    Вы не можете редактировать свои сообщения
    Вы не можете удалять свои сообщения
    Вы не можете голосовать в опросах
    Вы не можете прикреплять файлы к сообщениям
    Вы можете скачивать файлы