новый адрес
Мега распродажа FORZA HORIZON 4 ULTIMATE+ВСЕ DLC+ОНЛАЙН всего за 499р. 349 руб. (супер цена). Внимание количество ограничено!!!

iTunes

1+1

iTunes

мы

iTunes

1

iTunes

Чернобыль

iTunes

Ральф против интернета

Лицензия

ПШазам

Лицензия

Игра престолов

Лицензия

30
pack

ВАЖНО

!!Акция!!

Alien_RageХит недели

RePack

Resident Evil 21

ИГРА 18+

pack

RePack

Metro:Exodus

!!Акция!!

Alien_Rage

RePack

fifa19

RePack

Assassins Creed: Odyssey

RePack

NEED FOR SPEED™ PAYBACK

3 сезон

9 сезон

Бесстыжие 9 сезон

Все сериалы

все сериалы на PB.wtf

RePack

FAR CRY 5
Ребята, катастрофически не хватает 1900р. для оплаты серверов за Октябрь (всвязи с блокировками трафик упал в 3 раза), 1-2р., выручайте.
  

Званый ужин (Фридрих Эрмлер) [1953, СССР, короткометражка, комедия, DVDRip от AVP Studio] pb.wtf

Званый ужин через торрент pb.wtf

Раздают: 1 [ 0 KB/s ]
Размер: 369 MB | Добавлен: 9 мес. назад | Торрент скачан:19 раз
Скачать  

08-02-2019 08:34 Званый ужин Скачать торрент  

Званый ужин
Страна: СССР
Производство: Ленфильм

Жанр: короткометражка, комедия
Год выпуска: 1953
Продолжительность: 00:29:09

Перевод: Не требуется
Cубтитры: нет
Оригинальная аудиодорожка: русский

Режиссер: Фридрих Эрмлер

В ролях:
Игорь Ильинский, Нина Мамаева, Борис Жуковский, Анна Лисянская...
Об актёрах подробней

Описание:
Две ночи не спал Петр Петрович (Игорь Ильинский) - готовил званый ужин для своего начальника, нарочно придумал день рождения, лишь бы угодить, подлизаться к начальству. И вот, когда всё уже было готово к приёму гостей, произошёл досадный казус: дверь в комнату захлопнулась, ключ потерялся, а гости стоят в коридоре. Пётр Петрович мечется в запертой комнате.

Источник: DVD5 R5
Качество видео: DVDRip
Формат видео: AVI

Видео: 704х528 (4:3), 25 fps, XviD ~ 1567 kbps avg, 0.169 bit/pixel
Аудио: 48 kHz, Dolby Digital AC3 2.0, 192 kbps

Раздача от:
Общее
Полное имя : Razbitye.mechty.1962.DVDRip_[New-team]_by_AVP_Studio.avi
Формат : AVI
Формат/Информация : Audio Video Interleave
Размер файла : 369 Мбайт
Продолжительность : 29 м. 9 с.
Общий поток : 1769 Кбит/сек
Программа кодирования : VirtualDubMod 1.5.10.3 | www.virtualdub-fr.org || (build 2550/release)
Библиотека кодирования : VirtualDubMod build 2550/release

Видео
Идентификатор : 0
Формат : MPEG-4 Visual
Профиль формата : Advanced Simple@L5
Настройки формата : BVOP1 / Custom Matrix
Параметр BVOP формата : 1
Параметр QPel формата : Нет
Параметр GMC формата : Без точки перехода
Параметр матрицы формата : Выборочная
Идентификатор кодека : XVID
Идентификатор кодека/Подсказка : XviD
Продолжительность : 29 м. 9 с.
Битрейт : 1567 Кбит/сек
Ширина : 704 пикселя
Высота : 528 пикселей
Соотношение сторон : 4:3
Частота кадров : 25,000 кадров/сек
Цветовое пространство : YUV
Субдискретизация насыщенности : 4:2:0
Битовая глубина : 8 бит
Тип развёртки : Прогрессивная
Метод сжатия : С потерями
Бит/(Пиксели*Кадры) : 0.169
Размер потока : 327 Мбайт (89%)
Библиотека кодирования : XviD 73

Аудио
Идентификатор : 1
Формат : AC-3
Формат/Информация : Audio Coding 3
Коммерческое название : Dolby Digital
Идентификатор кодека : 2000
Продолжительность : 29 м. 9 с.
Вид битрейта : Постоянный
Битрейт : 192 Кбит/сек
Каналы : 2 канала
Channel layout : L R
Частота : 48,0 КГц
Частота кадров : 31,250 кадров/сек (1536 SPF)
Битовая глубина : 16 бит
Метод сжатия : С потерями
Размер потока : 40,0 Мбайт (11%)
Выравнивание : Разделение по промежуткам
Продолжительность промежутка : 40 мс. (1,00 видеокадр)
Время предзагрузки промежутка : 500 мс
pb.wtf



Скачать Званый ужин через торрент http://picplus.ru/img/1902/08/8fd652ae.png Скачать фильм Званый ужин через торрент бесплантно в хорошем качестве Описание:Две ночи не спал Петр Петрович (Игорь Ильинский) - готовил званый ужин для своего начальника, нарочно придумал день рождения, лишь ... 10 10 2
Торрент: Зарегистрирован [2019-02-08 08:34] · скачан: 19 раз
Статус: √ проверено
Размер: 369 MB
Как cкачать? Как скачать Званый ужин через торрент | qTorrent

% Раздел Тема Автор DL S | L
Кино СССР [ 372 MB ] Званый ужин [1953 СССР короткометражка DVDRip-AVC от AVP Studio] AVP Studio Скачать
1 | 0
Русские порно ролики [ 57 MB ] У лукоморья дуб зеленый [2014 Russian Girls Big Boobs Celebrity WEB-DL 720p] Скорпион1976 Скачать
2 | 0


>> Регистрируемся здесь <<






Отзывы и комментарии о схеме читаем и пишем здесь: ---> Отзывы и комментарии о схеме

Новые благодарочки в телеграм довольных пользователей:
скриншот   скриншот   скриншот   скриншот   скриншот
    Дорогой пользователь! Огромная просьба, поблагодарите релизера, оцените раздачу и оставьте свои комментарий, если Вы скачали Званый ужин через торрент бесплатно! Внесите свою лепту в развитие PiratBit!
    Комментировать посты могут только пользователи прошедшие не сложную регистрацию
    Показать сообщения:    

    Званый ужин через торрент
    Скачать бесплатно Званый ужин
    Званый ужин скачать торрент
    Званый ужин смотреть онлайн
    Cкачать фильм Званый ужин бесплатно
    Званый ужин скачать торрент в хорошем качестве
    Званый ужин смотреть онлайн бесплатно в хорошем качестве


    Вы не можете начинать темы
    Вы не можете отвечать на сообщения
    Вы не можете редактировать свои сообщения
    Вы не можете удалять свои сообщения
    Вы не можете голосовать в опросах
    Вы не можете прикреплять файлы к сообщениям
    Вы можете скачивать файлы