Ссылка на приватное зеркало нашего сайта всего за 1$. Внимание количество ограничено!!!

2 сезон

iTunes

1 сезон

1

2 сезон

2 сезон

iTunes

1 сезон

RePack

30

Новинка

ВАЖНО

ИГРА 18+

pack

RePack

MK11
pack

Забери бонус

RePack

jed

!!Акция!!

Alien_Rage

RePack

fifa19

RePack

Assassins Creed: Odyssey

RePack

NEED FOR SPEED™ PAYBACK

4 сезон

9 сезон

Бесстыжие 9 сезон

Все сериалы

все сериалы на PB.wtf

RePack

FAR CRY 5
  

Отверженные / Les Misérables / Les Miserables / Сезон: 1 / Серии: 1-6 из 6 (Том Шенклэнд) [2018-2019, драма, мелодрама, история, WEB-DL 1080p] MVO [LostFilm] pb.wtf

Отверженные через торрент pb.wtf

Размер: 24.35 GB | Добавлен: 1 год 9 мес. назад | Торрент скачан:56 раз
Скачать  

08-02-2019 10:51 Отверженные Скачать торрент  

Отверженные / Les Misérables / Les Miserables Годы выпуска: 2018-2019
Страны: Великобритания, США
Производство: BBC One
Жанр: драма, мелодрама, история
Продолжительность: 01:00:00
Перевод: Профессиональный (многоголосый закадровый) | LostFilm
Субтитры: английские (SDH)

Режиссёр: Том Шенклэнд / Tom Shankland

rating

В ролях:

Доминик Уэст, Дэвид Ойелоуо, Лили Коллинз, Адель Ахтар, Дэвид Брэдли, Эмма Филдинг, Энцо Чиленти, Оливия Колман, Андре Паскуаси, Дональд Самптер, Элли Бамбер, Турло Конвери, Эрин Келлиман, Арчи Мадекве, Джош О'Коннор, Джозеф Куинн, Натали Симпсон, Анджела Уинтер, Рис Йейтс, Даррен Кент, Генри Ллойд-Хьюз, Джозеф Алтин, Анна Кальдер-Маршалл, Рон Кук , Лоркан Кранич, Майлоу Дефой, Томми Финнеган, Эммануэль Гофен, Мванза Гутьер, Олли Харнетт, Лия Харви, Джумейн Хантер и др.

Описание:

Жан Вальжан — осужденный за кражу хлеба беглый каторжник, на протяжении долгих лет скрывается от инспектора Жавера. Жавер, в свою очередь, свято верит в справедливость закона и считает делом чести поимку беглого вора. Параллельно с их противостоянием развивается трагичная история Фантины и ее незаконнорожденной дочери Козетты. После смерти Фантины Жан Вальжан, считающий себя в ответе за ее судьбу, забирает Козетту и заботится о ней как о родной дочери.

Качество: WEB-DL 1080p (QOQ)
Формат: MKV

Видео: x264, 1920x1080 (16:9), 25.000 fps, ~8817 kbps avg, 0.170 bit/pixel
Аудио #1: Russian 48.0 KHz, AC3, 2/0 (Front: L R) ch, ~384.00 kbps avg |LostFilm|
Аудио #2: English 48.0 KHz, EAC3, 3/2 (L,C,R,l,r) + LFE ch, ~640.00 kbps avg |Original|
Сборка и работа со звуком - whip93.
foGeneral
Unique ID : 246944690886669394970665962571187004576 (0xB9C7D146473142D0A8F4DC182976A4A0)
Complete name : C:\Сериалы\Les Misérables - The Complete Series - whip93\Les.Misérables.S01E01.1080p.WEB-DL.DD2.0.H.264.-whip93.mkv
Format : Matroska
Format version : Version 4 / Version 2
File size : 4.10 GiB
Duration : 59 min 35 s
Overall bit rate : 9 843 kb/s
Movie name : Отверженные | Les Misérables (Episode 1) - Release by whip93
Encoded date : UTC 2019-02-07 10:32:07
Writing application : mkvmerge v28.0.0 ('Voice In My Head') 64-bit
Writing library : libebml v1.3.6 + libmatroska v1.4.9

Video
ID : 1
Format : AVC
Format/Info : Advanced Video Codec
Format profile : High@L4
Format settings : CABAC / 4 Ref Frames
Format settings, CABAC : Yes
Format settings, ReFrames : 4 frames
Codec ID : V_MPEG4/ISO/AVC
Duration : 59 min 35 s
Bit rate mode : Constant
Bit rate : 8 817 kb/s
Nominal bit rate : 10 000 kb/s
Width : 1 920 pixels
Height : 1 080 pixels
Display aspect ratio : 16:9
Frame rate mode : Constant
Frame rate : 25.000 FPS
Color space : YUV
Chroma subsampling : 4:2:0
Bit depth : 8 bits
Scan type : Progressive
Bits/(Pixel*Frame) : 0.170
Stream size : 3.67 GiB (90%)
Title : QOQ's WEB-DL
Language : English
Default : Yes
Forced : No
Color range : Limited
Color primaries : BT.709
Transfer characteristics : BT.709
Matrix coefficients : BT.709

Audio #1
ID : 2
Format : AC-3
Format/Info : Audio Coding 3
Codec ID : A_AC3
Duration : 59 min 34 s
Bit rate mode : Constant
Bit rate : 384 kb/s
Channel(s) : 2 channels
Channel positions : Front: L R
Sampling rate : 48.0 kHz
Frame rate : 31.250 FPS (1536 SPF)
Bit depth : 16 bits
Compression mode : Lossy
Stream size : 164 MiB (4%)
Title : MVO (LostFilm)
Language : Russian
Service kind : Complete Main
Default : Yes
Forced : No

Audio #2
ID : 3
Format : E-AC-3
Format/Info : Enhanced Audio Coding 3
Codec ID : A_EAC3
Duration : 59 min 35 s
Bit rate mode : Constant
Bit rate : 640 kb/s
Channel(s) : 6 channels
Channel positions : Front: L C R, Side: L R, LFE
Sampling rate : 48.0 kHz
Frame rate : 187.500 FPS (256 SPF)
Compression mode : Lossy
Stream size : 273 MiB (7%)
Title : Original
Language : English
Service kind : Complete Main
Default : No
Forced : No

Text
ID : 4
Format : UTF-8
Codec ID : S_TEXT/UTF8
Codec ID/Info : UTF-8 Plain Text
Duration : 58 min 58 s
Bit rate : 51 b/s
Count of elements : 797
Stream size : 22.4 KiB (0%)
Title : Original (SDH)
Language : English
Default : No
Forced : No
скриншот  скриншот  скриншот  

скриншот  скриншот  скриншот  
pb.wtf



Скачать Отверженные через торрент https://i4.imageban.ru/out/2019/02/08/f03a27c628ea4338d49cef47aa76f33b.jpg Скачать фильм Отверженные через торрент бесплантно в хорошем качестве Описание: Жан Вальжан — осужденный за кражу хлеба беглый каторжник, на протяжении долгих лет скрывается от инспектора Жавера. Жавер, в свою ... 10 10 4
Торрент: Зарегистрирован [2019-02-08 10:51] · скачан: 56 раз
Статус: √ проверено
Размер: 24.35 GB
Как cкачать? Как скачать Отверженные через торрент | qTorrent

% Раздел Тема Автор DL S | L
Зарубежные сериалы [ 13.98 GB ] Отверженные / Les Miserables / Сезон: 1 / Серии: 1-6 из 6 [2019 история HDTVRip 1080p] MVO [TVShows] bober100 Скачать
1 | 0

28-11-2019 20:33  

Отключить всю рекламу на сайте

    Дорогой пользователь! Огромная просьба, поблагодарите релизера, оцените раздачу и оставьте свои комментарий, если Вы скачали Отверженные через торрент бесплатно! Внесите свою лепту в развитие PiratBit!
    Комментировать посты могут только пользователи прошедшие не сложную регистрацию
    Показать сообщения:    

    Отверженные через торрент
    Скачать бесплатно Отверженные
    Отверженные скачать торрент
    Отверженные смотреть онлайн
    Cкачать фильм Отверженные бесплатно
    Отверженные скачать торрент в хорошем качестве
    Отверженные смотреть онлайн бесплатно в хорошем качестве


    Вы не можете начинать темы
    Вы не можете отвечать на сообщения
    Вы не можете редактировать свои сообщения
    Вы не можете удалять свои сообщения
    Вы не можете голосовать в опросах
    Вы не можете прикреплять файлы к сообщениям
    Вы можете скачивать файлы