Ссылка на приватное зеркало нашего сайта всего за 1$. Внимание количество ограничено!!!

2 сезон

iTunes

1 сезон

1

2 сезон

2 сезон

iTunes

1 сезон

RePack

30

Новинка

ВАЖНО

ИГРА 18+

pack

RePack

MK11
pack

Забери бонус

RePack

jed

!!Акция!!

Alien_Rage

RePack

fifa19

RePack

Assassins Creed: Odyssey

RePack

NEED FOR SPEED™ PAYBACK

4 сезон

9 сезон

Бесстыжие 9 сезон

Все сериалы

все сериалы на PB.wtf

RePack

FAR CRY 5
  

Химера / Braid (Митци Пейроне) [2018, триллер, детектив, WEB-DL 1080p] DUB [iTunes] pb.wtf

Химера через торрент pb.wtf

Раздают: 1 [ 0 KB/s ]
Размер: 3.03 GB | Добавлен: 1 год 9 мес. назад | Торрент скачан:280 раз
Скачать  

09-02-2019 13:16 Химера Скачать торрент  

Химера / Braid
««Играют все. Не выживает никто»»

Год выпуска: 2018
Страна: США
Жанр: триллер, детектив
Продолжительность: 01:21:30
Перевод: Дублированный [iTunes]
Субтитры: английские
Режиссер: Митци Пейроне
В ролях:

Мадлен Брюэр (Daphne Peters), Скотт Коэн (Detective Siegel), Сара Хэй (Tilda Darlings), Имоджен Уотерхаус (Petula Thames), Маурицио Овейлл (Officer Harrison), Мэри Лурман (Grandmother), Брэд Калькатерра (Tiresias), Дхони Миддлтон (Young Petula), Джилл Далтон (Old Daphne), Этель Фишер (Old Tilda), Ленор Вульф (Hazel), Нэнси Озелли (Old Petula)
Описание:
Чтобы провернуть ограбление, девушки с мелкокриминальными наклонностями Петула и Тильда затевают игру в доктора с подругой детства - безумной хозяйкой огромного особняка, наследницей миллионов. Но скоро преступницы оказываются в зловещем лабиринте кошмаров, извращений и галлюцинаций, полном болезненных фантазий и садистских пыток.
Рейтинг:
rating
MPAA: R - Лицам до 17 лет обязательно присутствие взрослого
Качество: WEB-DL 1080p
Формат: MKV
Видео: AVC, 1920x802 (2.40:1), 4451 kbps, 25 fps, 0,116 bpp
Аудио №1: русский / AC3 / 5.1 / 48 kHz / 384 kbps / |DUB|
Аудио №2: английский / AC3 / 5.1 / 48 kHz / 384 kbps /
Навигация по главам: есть
General
Unique ID : 170949943332614068248257874083343773135 (0x809BC2F0B7B112FFB0F39D36DFDC2DCF)
Complete name : D:\Braid.2019.WEB-DL.1080p.mkv
Format : Matroska
Format version : Version 2
File size : 3.03 GiB
Duration : 1 h 21 min
Overall bit rate : 5 325 kb/s
Encoded date : UTC 2019-02-08 15:28:14
Writing application : mkvmerge v5.4.0 ('Piper') built on Mar 10 2012 13:34:39
Writing library : libebml v1.2.3 + libmatroska v1.3.0

Video
ID : 1
Format : AVC
Format/Info : Advanced Video Codec
Format profile : High@L4
Format settings, CABAC : Yes
Format settings, ReFrames : 5 frames
Codec ID : V_MPEG4/ISO/AVC
Duration : 1 h 21 min
Bit rate : 4 451 kb/s
Width : 1 920 pixels
Height : 802 pixels
Display aspect ratio : 2.40:1
Frame rate mode : Constant
Frame rate : 25.000 FPS
Color space : YUV
Chroma subsampling : 4:2:0
Bit depth : 8 bits
Scan type : Progressive
Bits/(Pixel*Frame) : 0.116
Stream size : 2.53 GiB (84%)
Language : English
Default : Yes
Forced : No
Color range : Limited
Color primaries : BT.709
Transfer characteristics : BT.709
Matrix coefficients : BT.709

Audio #1
ID : 2
Format : AC-3
Format/Info : Audio Coding 3
Mode extension : CM (complete main)
Format settings, Endianness : Big
Codec ID : A_AC3
Duration : 1 h 21 min
Bit rate mode : Constant
Bit rate : 384 kb/s
Channel(s) : 6 channels
Channel positions : Front: L C R, Side: L R, LFE
Sampling rate : 48.0 kHz
Frame rate : 31.250 FPS (1536 spf)
Compression mode : Lossy
Stream size : 224 MiB (7%)
Title : DUB
Language : Russian
Default : Yes
Forced : No

Audio #2
ID : 3
Format : AC-3
Format/Info : Audio Coding 3
Mode extension : CM (complete main)
Format settings, Endianness : Big
Codec ID : A_AC3
Duration : 1 h 21 min
Bit rate mode : Constant
Bit rate : 384 kb/s
Channel(s) : 6 channels
Channel positions : Front: L C R, Side: L R, LFE
Sampling rate : 48.0 kHz
Frame rate : 31.250 FPS (1536 spf)
Compression mode : Lossy
Delay relative to video : 30 ms
Stream size : 224 MiB (7%)
Title : 5.1
Language : English
Default : No
Forced : No

Text
ID : 4
Format : UTF-8
Codec ID : S_TEXT/UTF8
Codec ID/Info : UTF-8 Plain Text
Title : 23.98 ---> 25
Language : English
Default : No
Forced : No

Menu
00:00:00.000 : en:Глава 1
00:03:20.600 : en:Глава 2
00:07:31.399 : en:Глава 3
00:13:05.279 : en:Глава 4
00:21:17.078 : en:Глава 5
00:28:55.877 : en:Глава 6
00:37:39.837 : en:Глава 7
00:45:31.197 : en:Глава 8
00:51:10.117 : en:Глава 9
00:59:30.517 : en:Глава 10
01:06:14.596 : en:Глава 11
01:13:12.075 : en:Глава 12
01:16:57.394 : en:Глава 13
скриншот   скриншот   скриншот   скриншот  
pb.wtf



Скачать Химера через торрент http://i84.fastpic.ru/big/2019/0207/a4/6f5ff6ee8e99e8a0ed3820c8974213a4.jpg Скачать фильм Химера через торрент бесплантно в хорошем качестве Описание: Чтобы провернуть ограбление, девушки с мелкокриминальными наклонностями Петула и Тильда затевают игру в доктора с подругой ... 9.2 10 12
Торрент: Зарегистрирован [2019-02-09 13:16] · скачан: 280 раз
Статус: √ проверено
Размер: 3.03 GB
Как cкачать? Как скачать Химера через торрент | qTorrent

% Раздел Тема Автор DL S | L
Фильмы 2018 [DVDrip, WEB-DLRip, HDrip] (DUB, MVO) [ 1.42 GB ] Химера / Braid [2018 BDRip] bober100 Скачать
3 | 0

28-11-2019 20:33  

Отключить всю рекламу на сайте

    Дорогой пользователь! Огромная просьба, поблагодарите релизера, оцените раздачу и оставьте свои комментарий, если Вы скачали Химера через торрент бесплатно! Внесите свою лепту в развитие PiratBit!
    Комментировать посты могут только пользователи прошедшие не сложную регистрацию
    Показать сообщения:    

    Химера через торрент
    Скачать бесплатно Химера
    Химера скачать торрент
    Химера смотреть онлайн
    Cкачать фильм Химера бесплатно
    Химера скачать торрент в хорошем качестве
    Химера смотреть онлайн бесплатно в хорошем качестве


    Вы не можете начинать темы
    Вы не можете отвечать на сообщения
    Вы не можете редактировать свои сообщения
    Вы не можете удалять свои сообщения
    Вы не можете голосовать в опросах
    Вы не можете прикреплять файлы к сообщениям
    Вы можете скачивать файлы