новый адрес
Ссылка на приватное зеркало всего за 1$. Внимание количество ограничено!!!

iTunes

1+1

iTunes

мы

WEB-DL

1

iTunes

Чернобыль

iTunes

Ральф против интернета

Лицензия

ПШазам

Лицензия

Оно 2

Лицензия

30
pack

Вам бонус

ВАЖНО

!!Акция!!

Alien_RageХит недели

RePack

Resident Evil 21

ИГРА 18+

pack

RePack

jed

!!Акция!!

Alien_Rage

RePack

fifa19

RePack

Assassins Creed: Odyssey

RePack

NEED FOR SPEED™ PAYBACK

3 сезон

9 сезон

Бесстыжие 9 сезон

Все сериалы

все сериалы на PB.wtf

RePack

FAR CRY 5
Ребята, катастрофически не хватает 1900р. для оплаты серверов за Октябрь (всвязи с блокировками трафик упал в 3 раза), 1-2р., выручайте.
  

Вдовы / Widows (Стив МакКуин) [2018, триллер, драма, криминал, BDRip-AVC] Дубляж [Лицензия] pb.wtf

Вдовы через торрент pb.wtf

Размер: 2.06 GB | Добавлен: 10 мес. назад | Торрент скачан:342 раза
Скачать  

09-02-2019 13:54 Вдовы Скачать торрент  

Вдовы / Widows««Лишённые всего, способные на всё»»

Год выпуска: 2018
Страна: Великобритания, США
Жанр: триллер, драма, криминал
Продолжительность: 02:09:34
Перевод: Дублированный [Лицензия]
Субтитры: Русские (форс., полные)
Режиссер: Стив МакКуин

В ролях:

Виола Дэвис (Veronica), Мишель Родригес (Linda), Элизабет Дебики (Alice), Синтиа Эриво (Belle), Колин Фаррелл (Jack Mulligan), Брайан Тайри Генри (Jamal Manning), Дэниэл Калуя (Jatemme Manning), Лиам Нисон (Harry Rawlings), Кэрри Кун (Amanda), Роберт Дювалл (Tom Mulligan), Джеки Уивер (Agnieszka), Джон Бернтал (Florek)
Описание:
История о жёнах грабителей, погибших при неудачном налёте. Новоиспечённые вдовы берутся сами закончить начатое, разобраться с полицией и конкурентами, а главное - выяснить, кто же подставил их мужей.
Рейтинг:

MPAA: R - Лицам до 17 лет обязательно присутствие взрослого
Качество: BDRip-AVC
Формат: MKV
Видео: 1024x428 (2.40:1), 23,976 fps, x264 ~1 826 kbps avg, 0.174 bit/pixel
Аудио #1: 48 kHz, AC3 Dolby Digital Plus, 3/2 (L,C,R,l,r) + LFE ch, ~448.00 kbps avg | RUS (Лицензия)
Навигация по главам: есть

Общее
Уникальный идентификатор : 255789946988996446971133655487702657333 (0xC06F5A120D008ED33428FB1341D86935)
Полное имя : F:OlLanDGroupWidows.2018.BDRip(AVC).OlLanDGroup.mkv
Формат : Matroska
Версия формата : Version 4 / Version 2
Размер файла : 2,06 Гбайт
Продолжительность : 2 ч. 9 м.
Общий поток : 2274 Кбит/сек
Название фильма : Widows 2018 #TorpedoUK#
Дата кодирования : UTC 2019-02-09 11:43:46
Программа кодирования : mkvmerge v29.0.0 ('Like It Or Not') 64-bit
Библиотека кодирования : libebml v1.3.6 + libmatroska v1.4.9

Видео
Идентификатор : 1
Формат : AVC
Формат/Информация : Advanced Video Codec
Профиль формата : High@L4.1
Параметр CABAC формата : Да
Параметр ReFrames формата : 10 кадров
Идентификатор кодека : V_MPEG4/ISO/AVC
Продолжительность : 2 ч. 9 м.
Битрейт : 1826 Кбит/сек
Ширина : 1024 пикселя
Высота : 428 пикселей
Соотношение сторон : 2,40:1
Режим частоты кадров : Постоянный
Частота кадров : 23,976 (24000/1001) кадра/сек
Цветовое пространство : YUV
Субдискретизация насыщенности : 4:2:0
Битовая глубина : 8 бит
Тип развёртки : Прогрессивная
Бит/(Пиксели*Кадры) : 0.174
Размер потока : 1,65 Гбайт (80%)
Библиотека кодирования : x264 core 146 r2538 121396c
Настройки программы : cabac=1 / ref=10 / deblock=1:-3:-2 / analyse=0x3:0x113 / me=umh / subme=11 / psy=1 / psy_rd=0.95:0.07 / mixed_ref=1 / me_range=48 / chroma_me=1 / trellis=2 / 8x8dct=1 / cqm=0 / deadzone=21,11 / fast_pskip=1 / chroma_qp_offset=-3 / threads=6 / lookahead_threads=1 / sliced_threads=0 / nr=0 / decimate=1 / interlaced=0 / bluray_compat=0 / constrained_intra=0 / bframes=11 / b_pyramid=2 / b_adapt=2 / b_bias=0 / direct=3 / weightb=1 / open_gop=0 / weightp=2 / keyint=240 / keyint_min=23 / scenecut=40 / intra_refresh=0 / rc_lookahead=40 / rc=2pass / mbtree=0 / bitrate=1826 / ratetol=1.0 / qcomp=0.60 / qpmin=0 / qpmax=69 / qpstep=4 / cplxblur=20.0 / qblur=0.5 / vbv_maxrate=50000 / vbv_bufsize=62500 / nal_hrd=none / filler=0 / ip_ratio=1.40 / pb_ratio=1.30 / aq=1:1.00
Язык : English
Default : Да
Forced : Нет

Аудио
Идентификатор : 2
Формат : AC-3
Формат/Информация : Audio Coding 3
Расширение режима : CM (complete main)
Параметр Endianness формата : Big
Идентификатор кодека : A_AC3
Продолжительность : 2 ч. 9 м.
Вид битрейта : Постоянный
Битрейт : 448 Кбит/сек
Каналы : 6 каналов
Расположение каналов : Front: L C R, Side: L R, LFE
Частота : 48,0 КГц
Частота кадров : 31,250 кадров/сек (1536 spf)
Битовая глубина : 16 бит
Метод сжатия : С потерями
Размер потока : 415 Мбайт (20%)
Заголовок : DUB [License]
Язык : Russian
Default : Да
Forced : Нет

Текст #1
Идентификатор : 3
Формат : UTF-8
Идентификатор кодека : S_TEXT/UTF8
Идентификатор кодека/Информация : UTF-8 Plain Text
Продолжительность : 2 ч. 4 м.
Битрейт : 0 бит/сек
Count of elements : 12
Размер потока : 546 байт (0%)
Заголовок : Forced
Язык : Russian
Default : Да
Forced : Нет

Текст #2
Идентификатор : 4
Формат : UTF-8
Идентификатор кодека : S_TEXT/UTF8
Идентификатор кодека/Информация : UTF-8 Plain Text
Продолжительность : 2 ч. 8 м.
Битрейт : 92 бит/сек
Count of elements : 1518
Размер потока : 86,7 Кбайт (0%)
Заголовок : Full
Язык : Russian
Default : Нет
Forced : Нет

Меню
00:00:00.000 : en:Chapter 01
00:03:41.388 : en:Chapter 02
00:09:00.415 : en:Chapter 03
00:14:14.604 : en:Chapter 04
00:21:43.010 : en:Chapter 05
00:28:14.401 : en:Chapter 06
00:36:07.082 : en:Chapter 07
00:41:01.751 : en:Chapter 08
00:45:58.673 : en:Chapter 09
00:53:18.070 : en:Chapter 10
00:58:11.321 : en:Chapter 11
01:03:51.703 : en:Chapter 12
01:09:56.776 : en:Chapter 13
01:12:53.786 : en:Chapter 14
01:17:21.846 : en:Chapter 15
01:26:19.674 : en:Chapter 16
01:33:29.312 : en:Chapter 17
01:35:53.373 : en:Chapter 18
01:39:10.486 : en:Chapter 19
01:42:20.092 : en:Chapter 20
01:46:12.408 : en:Chapter 21
01:53:14.121 : en:Chapter 22
01:58:18.675 : en:Chapter 23
02:03:48.671 : en:Chapter 24
pb.wtf



Скачать Вдовы через торрент https://b.radikal.ru/b28/1902/28/9f1b1c0eddd4.png Скачать фильм Вдовы через торрент бесплантно в хорошем качестве Описание: История о жёнах грабителей, погибших при неудачном налёте. Новоиспечённые вдовы берутся сами закончить начатое, разобраться с ... 10 10 9
Торрент: Зарегистрирован [2019-02-09 13:54] · скачан: 342 раз
Статус: √ проверено
Размер: 2.06 GB
Как cкачать? Как скачать Вдовы через торрент | qTorrent

% Раздел Тема Автор DL S | L
Фильмы 2018 [DVDrip, WEB-DLRip, HDrip] (DUB, MVO) [ 1.46 GB ] Вдовы / Widows [2018 BDRip] - [] Twi7ter Скачать
4 | 0
Фильмы (HD 720p, 1080p) (48-60 fps) [ 13.66 GB ] Вдовы / Widows [2018 BDRip 720p 60 fps] sheker187 Скачать
1 | 0
Фильмы [HD 720p, 1080p] (Хороший звук DUB, MVO) [ 13.03 GB ] Вдовы / Widows [2018 BDRip 1080p] bober100 Скачать
2 | 0
Фильмы (Blu-ray, BD-Remux, HDDVD) [ 28.87 GB ] Вдовы / Widows [2018 BD Remux 1080p] bober100 Скачать
1 | 0
Фильмы [HD 720p, 1080p] (Хороший звук DUB, MVO) [ 2.62 GB ] Вдовы / Widows [2018 BDRip 1080p HEVC ()] Мичман37 Скачать
1 | 0
Фильмы 2018 [DVDrip, WEB-DLRip, HDrip] (DUB, MVO) [ 1.46 GB ] Вдовы / Widows [2018 BDRip] DUB [ BD CEE] bober100 Скачать
1 | 0
Ultra HD (UHD: 2K, 4K, 8K) — видео сверхвысокой чёткости [ 35.63 GB ] Вдовы / Widows [2018 UHD BDRip 2160p] [SDR] DUB [] sheker187 Скачать
1 | 0

28-11-2019 20:33  

Отключить всю рекламу на сайте

    Дорогой пользователь! Огромная просьба, поблагодарите релизера, оцените раздачу и оставьте свои комментарий, если Вы скачали Вдовы через торрент бесплатно! Внесите свою лепту в развитие PiratBit!
    Комментировать посты могут только пользователи прошедшие не сложную регистрацию
    Показать сообщения:    

    Вдовы через торрент
    Скачать бесплатно Вдовы
    Вдовы скачать торрент
    Вдовы смотреть онлайн
    Cкачать фильм Вдовы бесплатно
    Вдовы скачать торрент в хорошем качестве
    Вдовы смотреть онлайн бесплатно в хорошем качестве


    Вы не можете начинать темы
    Вы не можете отвечать на сообщения
    Вы не можете редактировать свои сообщения
    Вы не можете удалять свои сообщения
    Вы не можете голосовать в опросах
    Вы не можете прикреплять файлы к сообщениям
    Вы можете скачивать файлы