новый адрес
Ссылка на приватное зеркало всего за 1$. Внимание количество ограничено!!!

iTunes

1+1

iTunes

мы

WEB-DL

1

iTunes

Чернобыль

iTunes

Ральф против интернета

Лицензия

ПШазам

Лицензия

Оно 2

Лицензия

30
pack

Вам бонус

ВАЖНО

!!Акция!!

Alien_RageХит недели

RePack

Resident Evil 21

ИГРА 18+

pack

RePack

jed

!!Акция!!

Alien_Rage

RePack

fifa19

RePack

Assassins Creed: Odyssey

RePack

NEED FOR SPEED™ PAYBACK

3 сезон

9 сезон

Бесстыжие 9 сезон

Все сериалы

все сериалы на PB.wtf

RePack

FAR CRY 5
Ребята, катастрофически не хватает 1900р. для оплаты серверов за Октябрь (всвязи с блокировками трафик упал в 3 раза), 1-2р., выручайте.
  

Нас не проведешь / Nobody's Fool (Тайлер Перри) [2018, Драма, мелодрама, комедия, BDRip] DUB [iTunes] pb.wtf

Нас не проведешь через торрент pb.wtf

Раздают: 1 [ 4 KB/s ]
Размер: 1.46 GB | Добавлен: 10 мес. назад | Торрент скачан:108 раз
Скачать  

09-02-2019 17:53 Нас не проведешь Скачать торрент  

Нас не проведешь / Nobody's Fool Год выпуска: 2018
Страна: США
Жанр: Драма, мелодрама, комедия
Продолжительность: 01:50:21
Перевод: Дублированный | iTunes
Субтитры: русские (форс. вшитые)

Режиссер: Тайлер Перри

rating

В ролях:

Мисси Пайл, Тиффани Хэддиш, Кортни Хенгелер, Тика Самптер, Вупи Голдберг, Омари Хардвик, Мехкад Брукс, Джон Рудницкий, Эмбер Райли, Тринити Уайтсайд и др.

Описание:

Таня только вышла из тюрьмы и решает навестить свою сестру Данику, у которой, на первый взгляд, «идеальная жизнь».

Качество: BDRip
Формат: AVI

Видео: Xvid 73, 720x304, ~1494 kbps, 23,976 fps
Аудио: русский, AC3, 5.1 ch, 48 kHz, 384 kbps | iTunes
скриншот  скриншот  скриншот  скриншот  

General
Полное имя : E:TorrentNobodysFoolBDRip.avi
Формат : AVI
Формат/Информация : Audio Video Interleave
Профиль формата : OpenDML
Размер файла : 1.46 GiB
Продолжительность : 1 h 50 min
Общий поток : 1 890 kb/s
Программа кодирования : XviD4PSP 6.0 / 54.27.101

Video
Идентификатор : 0
Формат : MPEG-4 Visual
Профиль формата : Advanced Simple@L5
Настройки формата : BVOP2 / Custom Matrix
Параметр BVOP формата : 2
Параметр QPel формата : No
Параметр GMC формата : No warppoints
Параметр матрицы формата : Custom
Идентификатор кодека : XVID
Идентификатор кодека/Подсказка : XviD
Продолжительность : 1 h 50 min
Битрейт : 1 494 kb/s
Ширина : 720 pixels
Высота : 304 pixels
Соотношение сторон : 2.35:1
Частота кадров : 23.976 (23976/1000) FPS
Цветовое пространство : YUV
Субдискретизация насыщенности : 4:2:0
Битовая глубина : 8 bits
Тип развёртки : Progressive
Метод сжатия : Lossy
Бит/(Пиксели*Кадры) : 0.285
Размер потока : 1.15 GiB (79%)
Библиотека кодирования : XviD 73

Audio
Идентификатор : 1
Формат : AC-3
Формат/Информация : Audio Coding 3
Идентификатор кодека : 2000
Продолжительность : 1 h 50 min
Вид битрейта : Constant
Битрейт : 384 kb/s
Каналы : 6 channels
Расположение каналов : Front: L C R, Side: L R, LFE
Частота : 48.0 kHz
Частота кадров : 31.250 FPS (1536 SPF)
Битовая глубина : 16 bits
Метод сжатия : Lossy
Размер потока : 303 MiB (20%)
Выравнивание : Aligned on interleaves
Продолжительность промежутка : 32 ms (0.77 video frame)

pb.wtf



Скачать Нас не проведешь через торрент http://lostpix.com/thumbs/2019-02/09/zril8qnonvxfiqy0sdk5wswb6.png Скачать фильм Нас не проведешь через торрент бесплантно в хорошем качестве Описание: Таня только вышла из тюрьмы и решает навестить свою сестру Данику, у которой, на первый взгляд, «идеальная ... 10 10 5
Торрент: Зарегистрирован [2019-02-09 17:53] · скачан: 108 раз
Статус: √ проверено
Размер: 1.46 GB
Как cкачать? Как скачать Нас не проведешь через торрент | qTorrent

28-11-2019 20:33  

Отключить всю рекламу на сайте

    Дорогой пользователь! Огромная просьба, поблагодарите релизера, оцените раздачу и оставьте свои комментарий, если Вы скачали Нас не проведешь через торрент бесплатно! Внесите свою лепту в развитие PiratBit!
    Комментировать посты могут только пользователи прошедшие не сложную регистрацию
    Показать сообщения:    

    Нас не проведешь через торрент
    Скачать бесплатно Нас не проведешь
    Нас не проведешь скачать торрент
    Нас не проведешь смотреть онлайн
    Cкачать фильм Нас не проведешь бесплатно
    Нас не проведешь скачать торрент в хорошем качестве
    Нас не проведешь смотреть онлайн бесплатно в хорошем качестве


    Вы не можете начинать темы
    Вы не можете отвечать на сообщения
    Вы не можете редактировать свои сообщения
    Вы не можете удалять свои сообщения
    Вы не можете голосовать в опросах
    Вы не можете прикреплять файлы к сообщениям
    Вы можете скачивать файлы