Anonymous, добрый вечер, присоединяйтесь к нам в Telegram!, здесь всегда актуальный адрес сайта, оперативная поддержка и многое другое!

>

5.6

iTunes

7.4

iTunes

7.9

MVO

1

7.7

1 сезон

6.8

iTunes

7.3

1 сезон

13

6.7

1 сезон

8.3

RePack

30

ULTIMATE

pack

9.9

Лицензия

ВАЖНО

ИГРА 18+

pack

7.3

RePack

MK11

7.7

RePack

jed

7.8

RePack

fifa19

8.5

RePack

RDR2

RePack

NEED FOR SPEED™ PAYBACK

4 сезон

9 сезон

Бесстыжие 9 сезон

Все сериалы

все сериалы на PB.wtf

RePack

FAR CRY 5

Anonymous, добрый вечер, мы катастрофически не успеваем собрать деньги на оплату серверов, помогите нам пожалуйста 5,10,15р., для нас важна любая помощь . В качестве благодарности мы отключим Вам всю рекламу на сайте (укажите свой ник в строку Ваше имя)!

×
  
Magnet ссылка

ИП Пирогова / Сезон: 1 / Серии: 1-20 из 20 (Антон Маслов) [2019, Комедия, WEB-DLRip] pb.wtf

ИП Пирогова через торрент pb.wtf

Раздают: 1 [ 5 KB/s ]
Размер: 6.84 GB | Добавлен: 2 года 7 мес. назад | Торрент скачан:213 раз
Смотреть онлайн ИП Пирогова | Скачать    Ребята, помогите собрать деньги на оплату серверов!!!

09-02-2019 21:08 ИП Пирогова Скачать торрент  

ИП Пирогова Год выпуска: 2019
Страна: Россия
Жанр: Комедия
Продолжительность: ~ 00:25:00
Субтитры: отсутствуют

Режиссер: Антон Маслов



В ролях:

Елена Подкаминская, Данила Дунаев, Василина Юсковец, Елена Валюшкина, Алиса Феоктистова, Галина Безрук

Описание:

По сюжету, жизнь Веры размеренно катится по рельсам семейного счастья, пока измена мужа не заводит эти рельсы в тупик. Выставив неверного супруга из дома, Вера лишается не только доверия к мужчинам, но и средств к существованию. Тут самое время впасть в депрессию, но врожденная предприимчивость и талант к кондитерскому искусству внезапно открывают для Веры мир индивидуального предпринимательства. Оказалось, сладкий бизнес способен приносить хороший доход. Теперь вчерашней домохозяйке предстоит освоиться в роли бизнес-вумен, развить свой «сТОРТап» и заодно наладить личную жизнь.

Качество: WEB-DLRip
Формат: AVI

Видео: XviD, 1600 Кбит/с, 720x400
Аудио: AC3, 2 ch, 192 Кбит/с
скриншот   скриншот   скриншот   скриншот   скриншот   скриншот   скриншот  
скриншот  

General
Complete name : D:\IP.Pirogova.2019.WEB-DLRip.25Kuzmich\IP.Pirogova.e01.WEB-DLRip.25Kuzmich.avi
Format : AVI
Format/Info : Audio Video Interleave
File size : 350 MiB
Duration : 26 min 47 s
Overall bit rate : 1 825 kb/s
Writing application : VirtualDubMod 1.5.10.3 | www.virtualdub-fr.org || (build 2550/release)
Writing library : VirtualDubMod build 2550/release

Video
ID : 0
Format : MPEG-4 Visual
Format profile : Advanced Simple@L5
Format settings : BVOP1
Format settings, BVOP : 1
Format settings, QPel : No
Format settings, GMC : No warppoints
Format settings, Matrix : Default (MPEG)
Codec ID : XVID
Codec ID/Hint : XviD
Duration : 26 min 47 s
Bit rate : 1 623 kb/s
Width : 720 pixels
Height : 400 pixels
Display aspect ratio : 16:9
Frame rate : 25.000 FPS
Color space : YUV
Chroma subsampling : 4:2:0
Bit depth : 8 bits
Scan type : Progressive
Compression mode : Lossy
Bits/(Pixel*Frame) : 0.225
Stream size : 311 MiB (89%)
Writing library : XviD 65

Audio
ID : 1
Format : AC-3
Format/Info : Audio Coding 3
Codec ID : 2000
Duration : 26 min 47 s
Bit rate mode : Constant
Bit rate : 192 kb/s
Channel(s) : 2 channels
Channel positions : Front: L R
Sampling rate : 48.0 kHz
Frame rate : 31.250 FPS (1536 SPF)
Bit depth : 16 bits
Compression mode : Lossy
Stream size : 36.8 MiB (11%)
Alignment : Split accross interleaves
Interleave, duration : 40 ms (1.00 video frame)
Interleave, preload duratio : 500 ms
Service kind : Complete Main

Когда раздача ведётся путём добавления новых серий, при каждом добавлении создётся новый торрент. Чтобы начать докачку новой серии, пользователям необходимо сделать следующее:
(1) остановить скачивание,
(2) удалить старый торрент у себя из клиента (старые серии удалять не надо),
(3) скачать новый торрент и запустить его у себя в клиенте вместо старого, при этом указать клиенту путь в старую папку, куда и должно происходить скачивание новых серий.
Ваш клиент при этом должен произвести хеширование (проверку) старой папки (если не производит сам - помогите ему сделать это), и будет докачивать только те серии, которых у вас ещё нет. Старые серии при этом не удаляются, а продолжают раздаваться!
Eсли вы уже удалили старые серии, то предотвратить повторную закачку старых серий можно, отжав галочку в соответсвующих местах при запуске нового торрента. По возможности, желательно не удалять старые серии как можно дольше, чтобы релизер не столько продолжал раздавать старые серии, а смог сконцентрироваться на новых.
pb.wtf



Скачать ИП Пирогова через торрент https://c.radikal.ru/c19/1902/5c/196212eb1b0d.jpg Скачать, смотреть онлайн ИП Пирогова бесплантно в хорошем качестве Описание: По сюжету, жизнь Веры размеренно катится по рельсам семейного счастья, пока измена мужа не заводит эти рельсы в тупик. Выставив ... 8.7 10 15
Торрент: Зарегистрирован [2019-03-20 20:18] · скачан: 213 раз
Статус: √ проверено
Размер: 6.84 GB
Как cкачать? Как скачать ИП Пирогова через торрент | UTorrent

% Раздел Тема Автор DL S | L
TNT serials [ 91.44 GB ] ИП Пирогова / Сезон: 4 / Серии: 1-20 из 20 [2021 WEBRip 2160p] bober100 Скачать
2 | 0
TNT serials [ 15.18 GB ] ИП Пирогова / Сезон: 4 / Серии: 1-20 из 20 [2021 WEBRip 1080p] bober100 Скачать
1 | 0
TNT serials [ 5.86 GB ] ИП Пирогова / Сезон: 4 / Серии: 1-20 из 20 [2021 WEBRip] bober100 Скачать
1 | 0
TNT serials [ 5.85 GB ] ИП Пирогова / Сезон: 4 / Серии: 1-20 из 20 [2021 WEBRip-AVC] bober100 Скачать
4 | 1
TNT serials [ 10.32 GB ] ИП Пирогова / Сезон: 4 / Серии: 1-20 из 20 [2021 WEBRip 720p] bober100 Скачать
2 | 0
Наши сериалы [ 6.72 GB ] ИП Пирогова / Сезон: 3 / Серии: 1-13 из 13 [2020 WEBRip 720p] bober100 Скачать
1 | 0
Наши сериалы [ 3.82 GB ] ИП Пирогова / Сезон: 3 / Серии: 1-13 из 13 [2020 WEBRip-AVC] bober100 Скачать
1 | 0

28-11-2019 20:33  

Отключить всю рекламу на сайте

10-04-2019 19:33 ИП Пирогова Скачать торрент  

нет звукаpb.wtf



    Дорогой пользователь! Огромная просьба, поблагодарите релизера, оцените раздачу и оставьте свои комментарий, если Вы скачали ИП Пирогова через торрент бесплатно!
    Комментировать посты могут только пользователи прошедшие не сложную регистрацию
    Показать сообщения:    

    ИП Пирогова через торрент
    Скачать бесплатно ИП Пирогова
    ИП Пирогова скачать торрент
    ИП Пирогова смотреть онлайн
    Cкачать фильм ИП Пирогова бесплатно
    ИП Пирогова скачать торрент в хорошем качестве
    ИП Пирогова смотреть онлайн бесплатно в хорошем качестве


    Вы не можете начинать темы
    Вы не можете отвечать на сообщения
    Вы не можете редактировать свои сообщения
    Вы не можете удалять свои сообщения
    Вы не можете голосовать в опросах
    Вы не можете прикреплять файлы к сообщениям
    Вы можете скачивать файлы