Ссылка на приватное зеркало нашего сайта всего за 1$. Внимание количество ограничено!!!

2 сезон

iTunes

1 сезон

1

iTunes

iTunes

iTunes

1 сезон

RePack

30

ИГРА 18+

pack

ВАЖНО

!!Акция!!

Alien_RageХит недели

RePack

MK11
pack

Забери бонус

RePack

jed

!!Акция!!

Alien_Rage

RePack

fifa19

RePack

Assassins Creed: Odyssey

RePack

NEED FOR SPEED™ PAYBACK

4 сезон

9 сезон

Бесстыжие 9 сезон

Все сериалы

все сериалы на PB.wtf

RePack

FAR CRY 5
  

Опер по вызову / Сезон: 4 / Серии: 1-32 из 32 (Заза Буадзе, Денис Тарасов) [2019, Детектив, криминал, WEB-DL 720p] pb.wtf

Опер по вызову через торрент pb.wtf

Размер: 20.21 GB | Добавлен: 1 год 6 мес. назад | Торрент скачан:13 раз
Скачать  

10-02-2019 04:00 Опер по вызову Скачать торрент  

Опер по вызовуГод выпуска: 2019
Страна: Украина
Жанр: Детектив, криминал
Продолжительность: 00:46:00
Перевод: Не требуется
Субтитры: отсутствуют

Режиссер: Заза Буадзе, Денис Тарасов

В ролях:

Павел Вишняков, Слава Красовская, Артём Мартынишин, Александр Пожарский, Александр Игнатуша, Валентина Ищенко, Василий Черношкур, Иван Залуский, Дмитрий Гаврилов (II), Ася Белая, Богдан Олейник, Сергей Гаврилюк (II), Владислав Тененбаум, Юлия Чепурко, Вадим Залесский, Виталий Копилец, Юлия Гапчук, Руслан Никоненко, Александр Спирин, Владимир Гладкий, Михаил Федорченко, Александр Мельник (II), Владимир Кокотунов, Александр Дулин, Елена Вознесенская (II), Юрий Кулинич, Григорий Сирота, Юрий Потапенко, Татьяна Лаврушко, Павел Авилов, Евгений Поляков (II), Вячеслав Бабенков (II), Нина Набока, Валерий Гнеушев, Михаил Мерзликин (II), Игорь Марусяк, Сергей Деньга, Андрей Клименков, Виктор Демерташ, Екатерина Олиферовская, Николай Бутковский, Антон Себастьян, Дмитрий Усов, Евгений Волошенюк, Евгений Рачок, Владимир Беляев (III), Елена Ларина (III), Игорь Барсегян, Павел Кильницкий, Роман Ясиновский, Александр Мавриц, Виктор Данилюк, Ольга Карпова, Сергей Воляновский, Галина Деркач, Владимир Левицкий, Елена Хохлаткина, Дмитрий Лаленков, Юрий Карабак, Мария Мархай, Ирина Макарова (III), Владимир Попов (XII), Александр Бессмертный, Александр Зиневич, Александр Валюк, Анастасия Шеремет, Алина Маринина, Мария Ерёменко, Юрий Ходос, Сергей Детюк

Описание:

Каждое дело – вызов, каждое преступление – новая «легенда». Но права на ошибку у агентов нет, ведь маньяки и аферисты стали еще более ловкими, и каждое спец задание может закончится потерей для команды. В 4 сезоне все агенты попробуют себя в сложных спецоперациях. Сообразительный, привлекательный и отчаянный оперативник Артем Трофимов опять возьмется за расследование дерзких преступлений (ему придётся прыгать со зданий, и биться, и даже танцевать), вместе с бывшей аферисткой, гениальным хакером и спецназовцем в отставке во главе с руководителем по прозвищу "Дед" они готовы вновь выступить против самых виртуозных игроков криминального мира, распутывая еще больше загадок, тайн сверхсложных и дерзких и крайне опасные преступлений, проникая в мир криминальных сообществ. "Опер 4" - это не просто продолжение, это новая захватывающая история, которая никого не оставит равнодушным...

Качество: WEB-DL 720p
Формат: MKV

Видео: MPEG-4 AVC, ~ 1762 Кбит/с, 1280x720, 25 кадр/с
Аудио: AC3, 2 ch, 192 Кбит/с
скриншот  скриншот  скриншот  скриншот  скриншот  

Общее
Уникальный идентификатор : 238186644642920762654839291843780649740 (0xB3311441AC5186317D0A578FE525A30C)
Полное имя : E:\Опер по вызову.s04.(2019).WEB-DL (720p).by.Nicodem.Files-x\53.Опер по вызову.s04.E01.2019.WEB-DL (720p).by.Nicodem.Files-x.mkv
Формат : Matroska
Версия формата : Version 4 / Version 2
Размер файла : 643 Мбайт
Продолжительность : 45 м. 6 с.
Общий поток : 1994 Кбит/сек
Программа кодирования : Lavf56.36.100
Библиотека кодирования : Lavf56.36.100

Видео
Идентификатор : 1
Формат : AVC
Формат/Информация : Advanced Video Codec
Профиль формата : High@L3.1
Настройки формата : CABAC / 3 Ref Frames
Параметр CABAC формата : Да
Параметр RefFrames формата : 3 кадра
Идентификатор кодека : V_MPEG4/ISO/AVC
Продолжительность : 45 м. 6 с.
Битрейт : 1762 Кбит/сек
Ширина : 1280 пикселей
Высота : 720 пикселей
Соотношение сторон : 16:9
Режим частоты кадров : Постоянный
Частота кадров : 25,000 кадров/сек
Цветовое пространство : YUV
Субдискретизация насыщенности : 4:2:0
Битовая глубина : 8 бит
Тип развёртки : Прогрессивная
Бит/(Пиксели*Кадры) : 0.076
Размер потока : 569 Мбайт (88%)
Default : Да
Forced : Нет

Аудио
Идентификатор : 2
Формат : AC-3
Формат/Информация : Audio Coding 3
Идентификатор кодека : A_AC3
Продолжительность : 45 м. 6 с.
Вид битрейта : Постоянный
Битрейт : 192 Кбит/сек
Каналы : 2 канала
Расположение каналов : Front: L R
Частота : 48,0 КГц
Частота кадров : 31,250 кадров/сек (1536 SPF)
Битовая глубина : 16 бит
Метод сжатия : С потерями
Размер потока : 62,0 Мбайт (10%)
Язык : unknown
ServiceKind/String : Complete Main
Default : Да
Forced : Нет

Когда раздача ведётся путём добавления новых серий, при каждом добавлении создётся новый торрент. Чтобы начать докачку новой серии, пользователям необходимо сделать следующее:
(1) остановить скачивание,
(2) удалить старый торрент у себя из клиента (старые серии удалять не надо),
(3) скачать новый торрент и запустить его у себя в клиенте вместо старого, при этом указать клиенту путь в старую папку, куда и должно происходить скачивание новых серий.
Ваш клиент при этом должен произвести хеширование (проверку) старой папки (если не производит сам - помогите ему сделать это), и будет докачивать только те серии, которых у вас ещё нет. Старые серии при этом не удаляются, а продолжают раздаваться!
Eсли вы уже удалили старые серии, то предотвратить повторную закачку старых серий можно, отжав галочку в соответсвующих местах при запуске нового торрента. По возможности, желательно не удалять старые серии как можно дольше, чтобы релизер не столько продолжал раздавать старые серии, а смог сконцентрироваться на новых.
pb.wtf



Скачать Опер по вызову через торрент http://i103.fastpic.ru/big/2018/0813/b1/fe4d481f7a642a7e1fed8329ca7570b1.jpg Скачать фильм Опер по вызову через торрент бесплантно в хорошем качестве Описание: Каждое дело – вызов, каждое преступление – новая «легенда». Но права на ошибку у агентов нет, ведь маньяки и аферисты стали еще ... 10 10 3
Info! Золотая раздача, скачанное не засчитывается.
Торрент: Зарегистрирован [2019-03-31 10:50] · скачан: 13 раз
Статус: √ проверено
Размер: 20.21 GB
Как cкачать? Как скачать Опер по вызову через торрент | qTorrent

28-11-2019 20:33  

Отключить всю рекламу на сайте

    Дорогой пользователь! Огромная просьба, поблагодарите релизера, оцените раздачу и оставьте свои комментарий, если Вы скачали Опер по вызову через торрент бесплатно! Внесите свою лепту в развитие PiratBit!
    Комментировать посты могут только пользователи прошедшие не сложную регистрацию
    Показать сообщения:    

    Опер по вызову через торрент
    Скачать бесплатно Опер по вызову
    Опер по вызову скачать торрент
    Опер по вызову смотреть онлайн
    Cкачать фильм Опер по вызову бесплатно
    Опер по вызову скачать торрент в хорошем качестве
    Опер по вызову смотреть онлайн бесплатно в хорошем качестве


    Вы не можете начинать темы
    Вы не можете отвечать на сообщения
    Вы не можете редактировать свои сообщения
    Вы не можете удалять свои сообщения
    Вы не можете голосовать в опросах
    Вы не можете прикреплять файлы к сообщениям
    Вы можете скачивать файлы