новый адрес
Ссылка на приватное зеркало всего за 1$. Внимание количество ограничено!!!

iTunes

1+1

iTunes

мы

iTunes

1

iTunes

Чернобыль

iTunes

Ральф против интернета

Лицензия

ПШазам

Лицензия

Оно 2

Лицензия

30
pack

Вам бонус

ВАЖНО

!!Акция!!

Alien_RageХит недели

RePack

Resident Evil 21

ИГРА 18+

pack

RePack

jed

!!Акция!!

Alien_Rage

RePack

fifa19

RePack

Assassins Creed: Odyssey

RePack

NEED FOR SPEED™ PAYBACK

3 сезон

9 сезон

Бесстыжие 9 сезон

Все сериалы

все сериалы на PB.wtf

RePack

FAR CRY 5
Ребята, катастрофически не хватает 1900р. для оплаты серверов за Октябрь (всвязи с блокировками трафик упал в 3 раза), 1-2р., выручайте.
  

Нас не проведешь / Nobody's Fool (Тайлер Перри) [2018, Драма, мелодрама, комедия, BDRip-AVC] DUB [iTunes] pb.wtf

Нас не проведешь через торрент pb.wtf

Размер: 2.02 GB | Добавлен: 9 мес. назад | Торрент скачан:129 раз
Скачать  

10-02-2019 04:12 Нас не проведешь Скачать торрент  

Нас не проведешь / Nobody's Fool Год выпуска: 2018
Страна: США
Жанр: Драма, мелодрама, комедия
Продолжительность: 01:50:21
Перевод: Дублированный | iTunes
Субтитры: Русские (форс., полные), Английские (полные, SDH)

Режиссер: Тайлер Перри

rating

В ролях:

Мисси Пайл, Тиффани Хэддиш, Кортни Хенгелер, Тика Самптер, Вупи Голдберг, Омари Хардвик, Мехкад Брукс, Джон Рудницкий, Эмбер Райли, Тринити Уайтсайд и др.

Описание:

Таня только вышла из тюрьмы и решает навестить свою сестру Данику, у которой, на первый взгляд, «идеальная жизнь».

Качество: BDRip-AVC
Формат: MKV

Видео: 1024x428 (2.40:1), 23,976 fps, x264 ~1 791 kbps avg, 0.170 bit/pixel
Аудио#1: 48 kHz, AC3 Dolby Digital Plus, 3/2 (L,C,R,l,r) + LFE ch, ~384.00 kbps avg | RUS (iTunes)
Аудио#2: 48 kHz, AC3 Dolby Digital Plus, 3/2 (L,C,R,l,r) + LFE ch, ~448.00 kbps avg | ENG
скриншот  скриншот  скриншот  скриншот  скриншот  

Общее
Уникальный идентификатор : 280497422984099501954097135104720306745 (0xD305D6B01E4D214375B117A7F0DB0239)
Полное имя : F:\OlLanDGroup\Nobodys.Fool.2018.BDRip(AVC).OlLanDGroup.mkv
Формат : Matroska
Версия формата : Version 4 / Version 2
Размер файла : 2,02 Гбайт
Продолжительность : 1 ч. 50 м.
Общий поток : 2624 Кбит/сек
Название фильма : Nobodys.Fool.2018 #TorpedoUK#
Дата кодирования : UTC 2019-02-10 03:44:17
Программа кодирования : mkvmerge v29.0.0 ('Like It Or Not') 64-bit
Библиотека кодирования : libebml v1.3.6 + libmatroska v1.4.9

Видео
Идентификатор : 1
Формат : AVC
Формат/Информация : Advanced Video Codec
Профиль формата : High@L4.1
Параметр CABAC формата : Да
Параметр ReFrames формата : 10 кадров
Идентификатор кодека : V_MPEG4/ISO/AVC
Продолжительность : 1 ч. 50 м.
Битрейт : 1791 Кбит/сек
Ширина : 1024 пикселя
Высота : 428 пикселей
Соотношение сторон : 2,40:1
Режим частоты кадров : Постоянный
Частота кадров : 23,976 (24000/1001) кадра/сек
Цветовое пространство : YUV
Субдискретизация насыщенности : 4:2:0
Битовая глубина : 8 бит
Тип развёртки : Прогрессивная
Бит/(Пиксели*Кадры) : 0.170
Размер потока : 1,38 Гбайт (68%)
Библиотека кодирования : x264 core 146 r2538 121396c
Настройки программы : cabac=1 / ref=10 / deblock=1:-3:-3 / analyse=0x3:0x113 / me=umh / subme=11 / psy=1 / psy_rd=1.00:0.03 / mixed_ref=1 / me_range=48 / chroma_me=1 / trellis=2 / 8x8dct=1 / cqm=0 / deadzone=21,11 / fast_pskip=1 / chroma_qp_offset=-3 / threads=6 / lookahead_threads=1 / sliced_threads=0 / nr=0 / decimate=1 / interlaced=0 / bluray_compat=0 / constrained_intra=0 / bframes=11 / b_pyramid=2 / b_adapt=2 / b_bias=0 / direct=3 / weightb=1 / open_gop=0 / weightp=2 / keyint=240 / keyint_min=23 / scenecut=40 / intra_refresh=0 / rc_lookahead=40 / rc=2pass / mbtree=0 / bitrate=1791 / ratetol=1.0 / qcomp=0.60 / qpmin=0 / qpmax=69 / qpstep=4 / cplxblur=20.0 / qblur=0.5 / vbv_maxrate=50000 / vbv_bufsize=62500 / nal_hrd=none / filler=0 / ip_ratio=1.40 / pb_ratio=1.30 / aq=1:1.00
Язык : English
Default : Да
Forced : Нет

Аудио #1
Идентификатор : 2
Формат : AC-3
Формат/Информация : Audio Coding 3
Расширение режима : CM (complete main)
Параметр Endianness формата : Big
Идентификатор кодека : A_AC3
Продолжительность : 1 ч. 50 м.
Вид битрейта : Постоянный
Битрейт : 384 Кбит/сек
Каналы : 6 каналов
Расположение каналов : Front: L C R, Side: L R, LFE
Частота : 48,0 КГц
Частота кадров : 31,250 кадров/сек (1536 spf)
Битовая глубина : 16 бит
Метод сжатия : С потерями
Размер потока : 303 Мбайт (15%)
Заголовок : DUB [iTunes]
Язык : Russian
Default : Да
Forced : Нет

Аудио #2
Идентификатор : 3
Формат : AC-3
Формат/Информация : Audio Coding 3
Расширение режима : CM (complete main)
Параметр Endianness формата : Big
Идентификатор кодека : A_AC3
Продолжительность : 1 ч. 50 м.
Вид битрейта : Постоянный
Битрейт : 448 Кбит/сек
Каналы : 6 каналов
Расположение каналов : Front: L C R, Side: L R, LFE
Частота : 48,0 КГц
Частота кадров : 31,250 кадров/сек (1536 spf)
Битовая глубина : 16 бит
Метод сжатия : С потерями
Размер потока : 354 Мбайт (17%)
Заголовок : [Original]
Язык : English
Default : Нет
Forced : Нет

Текст #1
Идентификатор : 4
Формат : UTF-8
Идентификатор кодека : S_TEXT/UTF8
Идентификатор кодека/Информация : UTF-8 Plain Text
Продолжительность : 1 ч. 49 м.
Битрейт : 1 бит/сек
Count of elements : 38
Размер потока : 1,37 Кбайт (0%)
Заголовок : Forced
Язык : Russian
Default : Да
Forced : Нет

Текст #2
Идентификатор : 5
Формат : UTF-8
Идентификатор кодека : S_TEXT/UTF8
Идентификатор кодека/Информация : UTF-8 Plain Text
Продолжительность : 1 ч. 49 м.
Битрейт : 137 бит/сек
Count of elements : 2094
Размер потока : 111 Кбайт (0%)
Заголовок : Full
Язык : Russian
Default : Нет
Forced : Нет

Текст #3
Идентификатор : 6
Формат : UTF-8
Идентификатор кодека : S_TEXT/UTF8
Идентификатор кодека/Информация : UTF-8 Plain Text
Продолжительность : 1 ч. 45 м.
Битрейт : 97 бит/сек
Count of elements : 2174
Размер потока : 75,4 Кбайт (0%)
Заголовок : Full
Язык : English
Default : Нет
Forced : Нет

Текст #4
Идентификатор : 7
Формат : UTF-8
Идентификатор кодека : S_TEXT/UTF8
Идентификатор кодека/Информация : UTF-8 Plain Text
Продолжительность : 1 ч. 49 м.
Битрейт : 98 бит/сек
Count of elements : 2262
Размер потока : 79,3 Кбайт (0%)
Заголовок : SDH
Язык : English
Default : Нет
Forced : Нет

Меню
00:00:00.000 : :Chapter 01
00:08:01.731 : :Chapter 02
00:12:06.392 : :Chapter 03
00:22:15.792 : :Chapter 04
00:30:30.829 : :Chapter 05
00:38:17.295 : :Chapter 06
00:46:45.385 : :Chapter 07
00:53:31.124 : :Chapter 08
01:02:06.305 : :Chapter 09
01:09:06.934 : :Chapter 10
01:13:29.154 : :Chapter 11
01:20:32.285 : :Chapter 12
01:25:34.087 : :Chapter 13
01:32:33.256 : :Chapter 14
01:37:10.491 : :Chapter 15
01:43:12.352 : :Chapter 16

pb.wtf



Скачать Нас не проведешь через торрент https://i110.fastpic.ru/big/2019/0210/01/8b077dee77fed8eece8e7199d733b701.jpg Скачать фильм Нас не проведешь через торрент бесплантно в хорошем качестве Описание: Таня только вышла из тюрьмы и решает навестить свою сестру Данику, у которой, на первый взгляд, «идеальная ... 10 10 3
Торрент: Зарегистрирован [2019-02-10 04:12] · скачан: 129 раз
Статус: √ проверено
Размер: 2.02 GB
Как cкачать? Как скачать Нас не проведешь через торрент | qTorrent

Отключить всю рекламу на сайте

10-02-2019 14:01 Нас не проведешь Скачать торрент  

афро-американцы...pb.wtf



11-02-2019 00:06 Нас не проведешь Скачать торрент  

Ночной кошмар для Ку-клукс-клана... pb.wtf



    Дорогой пользователь! Огромная просьба, поблагодарите релизера, оцените раздачу и оставьте свои комментарий, если Вы скачали Нас не проведешь через торрент бесплатно! Внесите свою лепту в развитие PiratBit!
    Комментировать посты могут только пользователи прошедшие не сложную регистрацию
    Показать сообщения:    

    Нас не проведешь через торрент
    Скачать бесплатно Нас не проведешь
    Нас не проведешь скачать торрент
    Нас не проведешь смотреть онлайн
    Cкачать фильм Нас не проведешь бесплатно
    Нас не проведешь скачать торрент в хорошем качестве
    Нас не проведешь смотреть онлайн бесплатно в хорошем качестве


    Вы не можете начинать темы
    Вы не можете отвечать на сообщения
    Вы не можете редактировать свои сообщения
    Вы не можете удалять свои сообщения
    Вы не можете голосовать в опросах
    Вы не можете прикреплять файлы к сообщениям
    Вы можете скачивать файлы