Всегда рабочее зеркало без VPN и Proxy просто перед .vidak.icu напиши любое слово или цифру, Пример http://7eqi.vidak.icu

MVO

Лицензия

1 сезон

1

1 сезон

iTunes

1 сезон

13

1 сезон

Deluxe

pack

Рекомендуем

Пиратка

30

ВАЖНО

RePack

MK11

RePack

jed

RePack

fifa19

RePack

RDR2

RePack

NEED FOR SPEED™ PAYBACK

Кинопоиск HD

6 сезон

 Острые козырьки 6 сезон

Все сериалы

все сериалы на PB.wtf

RePack

FAR CRY 5

Anonymous, нам критически не хватает 2100 руб. на оплату серверов и переферии за МАЙ, помоги нам пожалуйста, вся надежда только на тебя. В благодарность мы отключим тебе всю рекламу на сайте!

×
  
Magnet ссылка

Лара Крофт: Расхитительница гробниц / Lara Croft: Tomb Raider (Саймон Уэст) [2001, фэнтези, боевик, приключения, BDRip-HEVC 1080p, (10Bit)] DUB+DVO+AVO pb.wtf

Лара Крофт: Расхитительница гробниц через торрент pb.wtf

Размер: 7.31 GB | Добавлен: 3 года 4 мес. назад | Торрент скачан:90 раз
Смотреть онлайн Лара Крофт: Расхитительница гробниц | Скачать    Ребята, помогите собрать деньги на оплату серверов!!!

10-02-2019 05:04 Лара Крофт: Расхитительница гробниц Скачать торрент  

Лара Крофт: Расхитительница гробниц / Lara Croft: Tomb Raider
Год выпуска: 2001
Страна: США, Великобритания, Япония, Германия
Жанр: фэнтези, боевик, приключения
Продолжительность: 01:40:32
Перевод:

#1: Дублированный | Лицензия
#2: Профессиональный (двухголосый) | Гланц и подруга
#3: Авторский (одноголосый) | Авторский Гаврилов

Субтитры: русские , английские

Режиссер: Саймон Уэст

rating

В ролях:

Анджелина Джоли, Джон Войт, Иэн Глен, Ноа Тейлор, Дэниэл Крэйг, Ричард Джонсон, Крис Барри, Джулиан Райнд-Татт, Лесли Филлипс, Роберт Филлипс

Описание:

Она - само совершенство! На нашей планете нет женщины, которая могла бы сравниться с ней. Она - божественно прекрасна, невероятно умна и потрясающе отважна. Она владеет всеми видами рукопашного боя, изумительно стреляет из любых видов оружия и способна выжить в самых экстремальных условиях. Эта девушка - дочь лорда. Ее имя - леди Лара Крофт. И пусть трепещут злодеи, которые попытаются встать у нее на пути...

Качество: BDRip-HEVC 1080p
Формат: MKV

Видео: x265, 10Bit, 1920х804 (16:9), 23,976 fps, ~8 082 kb/s, 0.218 bit/pixe
Аудио#1: Русский (AC3, 6 ch, 448 Кбит/с) / Дублированный
Аудио#2: Русский (dts, 6 ch, 768 Кбит/с) / Профессиональный (двухголосый, закадровый) - Гланц и Королёва
Аудио#3: Русский (AC3, 6 ch, 448 Кбит/с) / Авторский одноголосый (Гаврилов)
Аудио#4: Английский (AC3, 6 ch, 640 Кбит/с)
скриншот  скриншот  скриншот  скриншот  скриншот  

General
Unique ID : 274873648817071318376496142590893428224 (0xCECABD36D5F6DD33C282E02B3CC50E00)
Complete name : N:Лара Крофт Расхитительница гробниц (2001) BDRip 1080p [HEVC] 10Bit_Druidblack.mkv
Format : Matroska
Format version : Version 4 / Version 2
File size : 7.31 GiB
Duration : 1 h 40 min
Overall bit rate : 10.4 Mb/s
Encoded date : UTC 2018-06-12 15:41:15
Writing application : mkvmerge v24.0.0 ('Beyond The Pale') 64-bit
Writing library : libebml v1.3.6 + libmatroska v1.4.9
Cover : Yes
Attachments : cover.jpg
Encoding Gui : Hybrid 2018.06.04.1

Video
ID : 1
Format : HEVC
Format/Info : High Efficiency Video Coding
Format profile : Main 10@L5.1@High
Codec ID : V_MPEGH/ISO/HEVC
Duration : 1 h 40 min
Bit rate : 8 082 kb/s
Width : 1 920 pixels
Height : 804 pixels
Display aspect ratio : 2.40:1
Frame rate mode : Constant
Frame rate : 23.976 (24000/1001) FPS
Color space : YUV
Chroma subsampling : 4:2:0 (Type 0)
Bit depth : 10 bits
Bits/(Pixel*Frame) : 0.218
Stream size : 5.68 GiB (78%)
Writing library : x265 2.8+12-9cde2c278464:[Windows][GCC 7.3.0][64 bit] 10bit
Encoding settings : cpuid=1049071 / frame-threads=4 / wpp / no-pmode / no-pme / no-psnr / no-ssim / log-level=2 / input-csp=1 / input-res=1920x804 / interlace=0 / total-frames=0 / level-idc=51 / high-tier=1 / uhd-bd=0 / ref=5 / no-allow-non-conformance / no-repeat-headers / annexb / no-aud / no-hrd / info / hash=0 / no-temporal-layers / open-gop / min-keyint=23 / keyint=240 / gop-lookahead=0 / bframes=8 / b-adapt=2 / b-pyramid / bframe-bias=0 / rc-lookahead=40 / lookahead-slices=5 / scenecut=40 / radl=0 / no-intra-refresh / ctu=64 / min-cu-size=8 / rect / no-amp / max-tu-size=32 / tu-inter-depth=3 / tu-intra-depth=3 / limit-tu=4 / rdoq-level=2 / dynamic-rd=0.00 / no-ssim-rd / signhide / no-tskip / nr-intra=0 / nr-inter=0 / no-constrained-intra / no-strong-intra-smoothing / max-merge=3 / limit-refs=3 / limit-modes / me=3 / subme=7 / merange=57 / temporal-mvp / weightp / weightb / no-analyze-src-pics / deblock=-3:-3 / no-sao / no-sao-non-deblock / rd=4 / no-early-skip / rskip / no-fast-intra / no-tskip-fast / no-cu-lossless / no-b-intra / no-splitrd-skip / rdpenalty=0 / psy-rd=2.00 / psy-rdoq=1.00 / no-rd-refine / no-lossless / cbqpoffs=0 / crqpoffs=0 / rc=crf / crf=18.0 / qcomp=0.60 / qpstep=4 / stats-write=0 / stats-read=0 / vbv-maxrate=160000 / vbv-bufsize=160000 / vbv-init=0.9 / crf-max=0.0 / crf-min=0.0 / ipratio=1.40 / pbratio=1.30 / aq-mode=1 / aq-strength=1.00 / cutree / zone-count=1 / zones: / start-frame=133305 / end-frame=144648 / qp=35 / no-strict-cbr / qg-size=32 / no-rc-grain / qpmax=69 / qpmin=0 / no-const-vbv / sar=0 / overscan=0 / videoformat=5 / range=0 / colorprim=2 / transfer=2 / colormatrix=1 / chromaloc=1 / chromaloc-top=0 / chromaloc-bottom=0 / display-window=0 / max-cll=0,0 / min-luma=0 / max-luma=1023 / log2-max-poc-lsb=8 / vui-timing-info / vui-hrd-info / slices=1 / no-opt-qp-pps / no-opt-ref-list-length-pps / no-multi-pass-opt-rps / scenecut-bias=0.05 / no-opt-cu-delta-qp / no-aq-motion / no-hdr / no-hdr-opt / no-dhdr10-opt / no-idr-recovery-sei / analysis-reuse-level=5 / scale-factor=0 / refine-intra=0 / refine-inter=0 / refine-mv=0 / no-limit-sao / ctu-info=0 / no-lowpass-dct / refine-mv-type=0 / copy-pic=1 / max-ausize-factor=1.0 / no-dynamic-refine / no-single-sei
Default : Yes
Forced : Yes
Color range : Limited
Matrix coefficients : BT.709

Audio #1
ID : 2
Format : AC-3
Format/Info : Audio Coding 3
Codec ID : A_AC3
Duration : 1 h 40 min
Bit rate mode : Constant
Bit rate : 448 kb/s
Channel(s) : 6 channels
Channel positions : Front: L C R, Side: L R, LFE
Sampling rate : 48.0 kHz
Frame rate : 31.250 FPS (1536 SPF)
Bit depth : 16 bits
Compression mode : Lossy
Stream size : 322 MiB (4%)
Title : Дубляж
Language : Russian
Service kind : Complete Main
Default : Yes
Forced : No

Audio #2
ID : 3
Format : DTS
Format/Info : Digital Theater Systems
Codec ID : A_DTS
Duration : 1 h 40 min
Bit rate mode : Constant
Bit rate : 768 kb/s
Channel(s) : 6 channels
Channel positions : Front: L C R, Side: L R, LFE
Sampling rate : 48.0 kHz
Frame rate : 93.750 FPS (512 SPF)
Bit depth : 24 bits
Compression mode : Lossy
Stream size : 552 MiB (7%)
Title : Гланц и Королёва
Language : Russian
Default : No
Forced : No

Audio #3
ID : 4
Format : AC-3
Format/Info : Audio Coding 3
Codec ID : A_AC3
Duration : 1 h 40 min
Bit rate mode : Constant
Bit rate : 448 kb/s
Channel(s) : 6 channels
Channel positions : Front: L C R, Side: L R, LFE
Sampling rate : 48.0 kHz
Frame rate : 31.250 FPS (1536 SPF)
Bit depth : 16 bits
Compression mode : Lossy
Stream size : 322 MiB (4%)
Title : Гаврилов
Language : Russian
Service kind : Complete Main
Default : No
Forced : No

Audio #4
ID : 5
Format : AC-3
Format/Info : Audio Coding 3
Codec ID : A_AC3
Duration : 1 h 40 min
Bit rate mode : Constant
Bit rate : 640 kb/s
Channel(s) : 6 channels
Channel positions : Front: L C R, Side: L R, LFE
Sampling rate : 48.0 kHz
Frame rate : 31.250 FPS (1536 SPF)
Bit depth : 16 bits
Compression mode : Lossy
Stream size : 460 MiB (6%)
Language : English
Service kind : Complete Main
Default : No
Forced : No

Text #1
ID : 6
Format : PGS
Muxing mode : zlib
Codec ID : S_HDMV/PGS
Codec ID/Info : Picture based subtitle format used on BDs/HD-DVDs
Duration : 1 h 31 min
Bit rate : 23.5 kb/s
Count of elements : 1185
Stream size : 15.4 MiB (0%)
Language : Russian
Default : Yes
Forced : No

Text #2
ID : 7
Format : PGS
Muxing mode : zlib
Codec ID : S_HDMV/PGS
Codec ID/Info : Picture based subtitle format used on BDs/HD-DVDs
Duration : 1 h 27 min
Bit rate : 19.6 kb/s
Count of elements : 1244
Stream size : 12.2 MiB (0%)
Language : English
Default : No
Forced : No

Text #3
ID : 8
Format : PGS
Muxing mode : zlib
Codec ID : S_HDMV/PGS
Codec ID/Info : Picture based subtitle format used on BDs/HD-DVDs
Duration : 1 h 30 min
Bit rate : 20.5 kb/s
Count of elements : 1416
Stream size : 13.3 MiB (0%)
Language : English
Default : No
Forced : No

Menu
00:00:00.000 : en:Chapter 1
00:07:22.817 : en:Chapter 2
00:15:04.361 : en:Chapter 3
00:23:16.353 : en:Chapter 4
00:34:45.666 : en:Chapter 5
00:43:10.546 : en:Chapter 6
00:50:03.834 : en:Chapter 7
00:59:46.124 : en:Chapter 8
01:07:53.652 : en:Chapter 9
01:15:58.845 : en:Chapter 10
01:22:32.280 : en:Chapter 11
01:31:22.894 : en:Chapter 12

pb.wtf



Скачать Лара Крофт: Расхитительница гробниц через торрент http://i105.fastpic.ru/big/2018/0612/ca/f568213cdf8491585a94bd896cbdeeca.jpg Скачать, смотреть онлайн Лара Крофт: Расхитительница гробниц бесплантно в хорошем качестве Описание: Она - само совершенство! На нашей планете нет женщины, которая могла бы сравниться с ней. Она - божественно прекрасна, невероятно ... 10 10 8
Торрент: Зарегистрирован [2019-02-10 05:04] · скачан: 90 раз
Статус: √ проверено
Размер: 7.31 GB
Как cкачать? Как скачать Лара Крофт: Расхитительница гробниц через торрент | UTorrent

% Раздел Тема Автор DL S | L
Ultra HD (UHD: 2K, 4K, 8K) — видео сверхвысокой чёткости [ 50.72 GB ] Лара Крофт: Расхитительница гробниц 2 - Колыбель жизни / Lara Croft Tomb Raider: The Cradle of Life [2003 UHD BD Remux 2160p] DUB+DVO+AVO+MVO+2xMVO bober100 Скачать
1 | 0

28-11-2019 20:33  

Отключить всю рекламу на сайте

    Дорогой пользователь! Огромная просьба, поблагодарите релизера, оцените раздачу и оставьте свои комментарий, если Вы скачали Лара Крофт: Расхитительница гробниц через торрент бесплатно!
    Комментировать посты могут только пользователи прошедшие не сложную регистрацию
    Показать сообщения:    

    Лара Крофт: Расхитительница гробниц через торрент
    Скачать бесплатно Лара Крофт: Расхитительница гробниц
    Лара Крофт: Расхитительница гробниц скачать торрент
    Лара Крофт: Расхитительница гробниц смотреть онлайн
    Cкачать фильм Лара Крофт: Расхитительница гробниц бесплатно
    Лара Крофт: Расхитительница гробниц скачать торрент в хорошем качестве
    Лара Крофт: Расхитительница гробниц смотреть онлайн бесплатно в хорошем качестве


    Вы не можете начинать темы
    Вы не можете отвечать на сообщения
    Вы не можете редактировать свои сообщения
    Вы не можете удалять свои сообщения
    Вы не можете голосовать в опросах
    Вы не можете прикреплять файлы к сообщениям
    Вы можете скачивать файлы